Главная Торренты Загрузить Непроверенные Закачка картинок Парсер Гостевая Правила Команда Форум
Первый торрент трекер 3.0
   Здравствуйте, гость ( Вход | Регистрация )

Главное меню

Торренты
Загрузить
Форум
Топ 10
Правила
ЧаВо
Администрация

Персональное меню

Настройки
Закладки
Мои торренты
Мои запросы
Мой бонус
Мои друзья
Мои соседи
Пригласить
Пользователи
Выход!

Сообщения

Полученные
Отправленные

Торренты

Все торренты
Загрузить торрент
Непроверенные
Закачка картинок
Парсер релизов

Торрент-клиенты






Правила

Правила
ЧаВо

Общение

форум
Страницы & Блог
Мы в контакте
Чат

Администрация

Команда сайта
Обратная связь
Гостевая книга

Категории

Худ. фильмы
HD-фильмы
Док. фильмы
Иное кино
ТВ-записи
Сериалы
Спорт
Юмор (видео)
Клипы
Видео из игр
Отеч. мультфильмы
Мультфильмы
Аниме
Прочее видео
ХХХ
Отеч. музыка
Иностр. музыка
Сборники музыка
Юмор (музыка)
OST-саундтреки
Прочее аудио
PC игры
Игры для консолей
Flash и мини-игры
Дополнение к играм
Win-софт
Nix-софт
Mac-софт
Худ. книги
Учебники
Аудио книги
Журналы
Прочие книги
Фото,картинки,обои
Mobile
Hentai
Манга
Подкасты,радиошоу
Unsorted
Temp


Стол заказов Скрыть

Ссылки Скрыть


Погода в Брянске Скрыть

Реклама Скрыть

Наша кнопка

Первый торрент трекер 3.0


Брянское радио Скрыть

Календарь Скрыть
Сентябрь 2017г.
ПВСЧПСВ
28293031123
45678910
11121314151617
18192021222324
2526272829301
Московское время

Пожертвования Скрыть
Яндекс.Деньги:
41001624471351

VISA или MasterCard:

(изменить сумму
перевода можно
на этой странице)

Декабрь
Шарфик - 1000 р.
Nixon - 500 р.

Соц. закладки Скрыть

:: Детали релиза

Золотой торрент Мульти-трекерная раздача Трансформеры: Последний рыцарь / Transformers: The Last Knight (2017) WEB-DL 720p от ExKinoRay | iTunes

 
Изображение для Трансформеры: Последний рыцарь / Transformers: The Last Knight (2017) WEB-DL 720p от ExKinoRay | iTunes (кликните для просмотра полного изображения)

Информация о фильме
Название: Трансформеры: Последний рыцарь
Оригинальное название: Transformers: The Last Knight
Год выхода: 2017
Жанр: Фантастика, боевик, триллер, приключения
Режиссер: Майкл Бэй
В ролях: Марк Уолберг, Энтони Хопкинс, Джош Дюамель, Лора Хэддок, Сантьяго Кабрера, Изабела Монер, Джеррод Кармайкл, Стэнли Туччи, Лиам Гэрриган, Мартин МакКриди

pic/opisanie.gif
Оптимус Прайм исчез. Люди ведут войну с Трансформерами. Ключ к нашему будущему погребен в тайнах прошлого, в скрытой истории Трансформеров на Земле… Миссия по спасению мира ложится на плечи разношерстной компании, состоящей из Кейда Йегера, Бамблби, английского лорда и профессора из Оксфорда. Пришла пора действовать! Жертвы станут героями. Герои станут злодеями. Выстоит только один мир: их или наш.


http://s.rutor.info/imdb/pic/3371366.gif http://www.kinopoisk.ru/rating/811609.gif

Страна: США
Студия: Di Bonaventura Pictures, Hasbro Inc., Huahua Film and Media Culture, Ian Bryce Productions, Paramount Pictures
Продолжительность: 02:34:43
Перевод: Дублированный | iTunes

Файл
Качество: WEB-DL 720p
Видео: MPEG-4 AVC, 1280x672, 2872 Кbit/s, 23.976 fps
Звук:
Аудио #01: 48 kHz, AC3, 5.1, 384 Kbps | Дублированный | iTunes | RUS |http://lostpix.com/img/2016-04/26/ecarul7mj2gcrjkf30af8u4tk.gif
Аудио #02: 48 kHz, AC3, 5.1, 384 Kbps | Оригинал | ENG |http://lostpix.com/img/2016-09/30/0icucyo5gq0qmwlibabcgmhiw.gif
Субтитры: Русские (forced, full), английские

http://lostpix.com/thumbs/2017-09/13/mqf9g1a9zymhwltvry5urqxpb.png http://lostpix.com/thumbs/2017-09/13/laoie1yv7w2xwzmlcu9net53o.png http://lostpix.com/thumbs/2017-09/13/ok5cz6n1kv5bkp97hvt7959s3.png http://lostpix.com/thumbs/2017-09/13/mwlgpzuzuxoqaf2wa38q24xmu.png http://lostpix.com/thumbs/2017-09/13/khs305plb5bwtvj9bkd48dv5t.png

MI
General
Unique ID : 242295238292002105013653964349200541679 (0xB6485D9028041BB2B3A63B258B9227EF)
Complete name : F:VideoTransformers The Last Knight.2017.WEB-DL.720p.ExKinoRay.mkv
Format : Matroska
Format version : Version 4 / Version 2
File size : 3.94 GiB
Duration : 2 h 34 min
Overall bit rate mode : Variable
Overall bit rate : 3 645 kb/s
Encoded date : UTC 2017-09-13 18:33:39
Writing application : mkvmerge v15.0.0 ('Duel with the Devil') 64-bit
Writing library : libebml v1.3.5 libmatroska v1.4.5

Video
ID : 1
Format : AVC
Format/Info : Advanced Video Codec
Format profile : High@L4.1
Format settings, CABAC : Yes
Format settings, RefFrames : 9 frames
Codec ID : V_MPEG4/ISO/AVC
Duration : 2 h 34 min
Bit rate mode : Variable
Bit rate : 2 875 kb/s
Maximum bit rate : 40.0 Mb/s
Width : 1 280 pixels
Height : 672 pixels
Display aspect ratio : 1.905
Frame rate mode : Constant
Frame rate : 23.976 (24000/1001) FPS
Color space : YUV
Chroma subsampling : 4:2:0
Bit depth : 8 bits
Scan type : Progressive
Bits/(Pixel*Frame) : 0.139
Stream size : 3.11 GiB (79%)
Language : English
Default : Yes
Forced : No
Color range : Limited
Color primaries : BT.709
Transfer characteristics : BT.709
Matrix coefficients : BT.709

Audio #1
ID : 2
Format : AC-3
Format/Info : Audio Coding 3
Format settings, Endianness : Big
Codec ID : A_AC3
Duration : 2 h 34 min
Bit rate mode : Constant
Bit rate : 384 kb/s
Channel(s) : 6 channels
Channel positions : Front: L C R, Side: L R, LFE
Sampling rate : 48.0 kHz
Frame rate : 31.250 FPS (1536 SPF)
Bit depth : 16 bits
Compression mode : Lossy
Stream size : 424 MiB (11%)
Title : iTunes
Language : Russian
Service kind : Complete Main
Default : Yes
Forced : No

Audio #2
ID : 3
Format : AC-3
Format/Info : Audio Coding 3
Format settings, Endianness : Big
Codec ID : A_AC3
Duration : 2 h 34 min
Bit rate mode : Constant
Bit rate : 384 kb/s
Channel(s) : 6 channels
Channel positions : Front: L C R, Side: L R, LFE
Sampling rate : 48.0 kHz
Frame rate : 31.250 FPS (1536 SPF)
Bit depth : 16 bits
Compression mode : Lossy
Stream size : 424 MiB (11%)
Title : Original
Language : English
Service kind : Complete Main
Default : No
Forced : No

Text #1
ID : 4
Format : UTF-8
Codec ID : S_TEXT/UTF8
Codec ID/Info : UTF-8 Plain Text
Duration : 2 h 33 min
Bit rate : 0 b/s
Count of elements : 28
Stream size : 1.02 KiB (0%)
Title : Forced
Language : Russian
Default : Yes
Forced : No

Text #2
ID : 5
Format : UTF-8
Codec ID : S_TEXT/UTF8
Codec ID/Info : UTF-8 Plain Text
Duration : 2 h 33 min
Bit rate : 96 b/s
Count of elements : 2315
Stream size : 109 KiB (0%)
Title : Full
Language : Russian
Default : No
Forced : No

Text #3
ID : 6
Format : UTF-8
Codec ID : S_TEXT/UTF8
Codec ID/Info : UTF-8 Plain Text
Duration : 2 h 24 min
Bit rate : 65 b/s
Count of elements : 2340
Stream size : 69.8 KiB (0%)
Title : Full
Language : English
Default : No
Forced : No

Menu
00:00:00.000 : en:1
00:06:34.000 : en:2
00:14:01.000 : en:3
00:21:43.000 : en:4
00:27:50.000 : en:5
00:33:36.000 : en:6
00:39:58.000 : en:7
00:46:48.000 : en:8
00:53:14.000 : en:9
01:01:51.000 : en:10
01:08:35.000 : en:11
01:14:25.000 : en:12
01:19:57.000 : en:13
01:29:00.000 : en:14
01:37:45.000 : en:15
01:44:43.000 : en:16
01:51:01.000 : en:17
01:57:44.000 : en:18
02:05:54.000 : en:19
02:10:38.000 : en:20
02:15:45.000 : en:21
02:21:26.000 : en:22
02:25:00.000 : en:23


http://lostpix.com/img/2017-03/22/pa3kns75lpl0e564ik1il8ow9.gif
Оценить

Оценка: 0.0 из 10 (голосов: 0)

Скачать торрент файл и удобный браузер в подарок Скачать 
ТипХуд. фильмы
Хэш релиза18de89d60b6810a0fc9bd37cdcd77fc6b79e5d18
Проверить
Этот релиз был проверен Schwanz
Доп. статус раздачи*  Не проверено
РаздающийПоследний раз был здесь 4 минуты 24 секунды  назад
Размер3.94 GB (4,229,256,885 байт)
Добавлен13 сентября 2017 в 22:35:22
Просмотров171
Взят60
Скачан15 раз
ВыложилSchwanz       
 -6 
Оценить
 -1 
В раздаче
[Посмотреть список]
3 раздающих, 0 качающих = 3 пиров
Скачавшие
[Посмотреть список]
Данные о торрентеПоказать данные
Сказали спасибо
 

Похожие раздачи

» » » Показать список похожих торрентов « « «

:: Список комментариев http://torrents32.net
Комментариев нет. Желаете добавить?

:: Добавить комментарий к релизу
Штампы (откроются в новом окошке)
 

Реклама Скрыть
Место рекламы
Copyright © 2011
Первый торрент трекер 3.0 | Гостевая книга
Яндекс.Метрика

Вверх