Главная Торренты Загрузить Непроверенные Закачка картинок Парсер Гостевая Правила Команда Форум
Первый торрент трекер 3.0
   Здравствуйте, гость ( Вход | Регистрация )

Главное меню

Торренты
Загрузить
Форум
Топ 10
Правила
ЧаВо
Администрация

Персональное меню

Настройки
Закладки
Мои торренты
Мои запросы
Мой бонус
Мои друзья
Мои соседи
Пригласить
Пользователи
Выход!

Сообщения

Полученные
Отправленные

Торренты

Все торренты
Загрузить торрент
Непроверенные
Закачка картинок
Парсер релизов

Торрент-клиенты






Правила

Правила
ЧаВо

Общение

форум
Страницы & Блог
Мы в контакте
Чат

Администрация

Команда сайта
Обратная связь
Гостевая книга

Категории

Худ. фильмы
HD-фильмы
Док. фильмы
Иное кино
ТВ-записи
Сериалы
Спорт
Юмор (видео)
Клипы
Видео из игр
Отеч. мультфильмы
Мультфильмы
Аниме
Прочее видео
ХХХ
Отеч. музыка
Иностр. музыка
Сборники музыка
Юмор (музыка)
OST-саундтреки
Прочее аудио
PC игры
Игры для консолей
Flash и мини-игры
Дополнение к играм
Win-софт
Nix-софт
Mac-софт
Худ. книги
Учебники
Аудио книги
Журналы
Прочие книги
Фото,картинки,обои
Mobile
Hentai
Манга
Подкасты,радиошоу
Unsorted
Temp


Стол заказов Скрыть

Ссылки Скрыть


Погода в Брянске Скрыть

Реклама Скрыть

Наша кнопка

Первый торрент трекер 3.0


Брянское радио Скрыть

Календарь Скрыть
Август 2017г.
ПВСЧПСВ
31123456
78910111213
14151617181920
21222324252627
28293031123
Московское время

Пожертвования Скрыть
Яндекс.Деньги:
41001624471351

VISA или MasterCard:

(изменить сумму
перевода можно
на этой странице)

Декабрь
Шарфик - 1000 р.
Nixon - 500 р.

Соц. закладки Скрыть

:: Детали релиза

Мульти-трекерная раздача Эпоха за эпохой / Time after Time [S01] (2017) HDTVRip | OMSKBIRD

 
Изображение для Эпоха за эпохой / Time after Time [S01] (2017) HDTVRip | OMSKBIRD (кликните для просмотра полного изображения)

Информация о фильме
Название: Эпоха за эпохой
Оригинальное название: Time after Time
Год выхода: 2017
Жанр: фантастика, драма
Режиссер: Маркос Сига, Стив Шилл, Майкл А. Алловиц
В ролях: Уилл Чейз, Фредди Строма, Омар Маскати, Дженезис Родригез, Алан Ариано, Майкл Бенц, Джош Боуман, Райан Бертон, Джули Серда и др.

pic/opisanie.gif
Сериал расскажет о приключениях молодого писателя Герберта Уэллса, который изобретает машину времени. Он еще не успел её испытать, но за него это сделал Джек-Потрошитель, скрывающийся от полиции. Уэллс, убеждённый, что в будущем наступит утопия, не будет войн и преступности, решает отправиться вслед за ним, чтобы помешать кровавому маньяку сеять хаос.

http://www.kinopoisk.ru/rating/977944.gif
http://s.rutor.info/imdb/pic/5031234.gif

Страна: США
Продолжительность: ~ 44 мин. серия
Перевод: Любительский (многоголосый закадровый) | OMSKBIRD

Файл
Кодек: Xvid
Качество: HDTVRip
Видео: AVI, 720x400 (16:9), 25.000 fps, ~ 1800 kbps
Звук: Аудио rus: AC-3, 48 KHz, 2 ch, 192 kbps | OMSKBIRD records

Семпл

Скриншоты
http://i6.imageban.ru/thumbs/2017.03.12/e76ce1b54a13672a7a56864968b526d4.png http://i4.imageban.ru/thumbs/2017.03.12/f44a9895f2daa367085deb0286b79ecb.png http://i3.imageban.ru/thumbs/2017.03.12/c1b9b3c89e077b4236b824d546714f3d.png http://i6.imageban.ru/thumbs/2017.03.12/172236bbdbc418bad5eeb7c912d9919b.png
Mediainfo:
General
Complete name : F:Мои ДокументыВидеоРАЗДАЧИЭпохаTime after time S01 HDTVrip (OMSKBIRD)Time after time S01E01 HDTVrip (OMSKBIRD).avi
Format : AVI
Format/Info : Audio Video Interleave
File size : 616 MiB
Duration : 43mn 32s
Overall bit rate : 1 980 Kbps
Writing application : VirtualDubMod 1.5.10.3 | www.virtualdub-fr.org || (build 2550/release)
Writing library : VirtualDubMod build 2550/release

Video
ID : 0
Format : MPEG-4 Visual
Format profile : Advanced Simple@L5
Format settings, BVOP : 2
Format settings, QPel : No
Format settings, GMC : No warppoints
Format settings, Matrix : Default (MPEG)
Codec ID : XVID
Codec ID/Hint : XviD
Duration : 43mn 32s
Bit rate : 1 778 Kbps
Width : 720 pixels
Height : 400 pixels
Display aspect ratio : 16:9
Frame rate : 25.000 fps
Color space : YUV
Chroma subsampling : 4:2:0
Bit depth : 8 bits
Scan type : Progressive
Compression mode : Lossy
Bits/(Pixel*Frame) : 0.247
Stream size : 554 MiB (90%)
Writing library : XviD 1.2.1 (UTC 2008-12-04)

Audio
ID : 1
Format : AC-3
Format/Info : Audio Coding 3
Mode extension : CM (complete main)
Format settings, Endianness : Big
Codec ID : 2000
Duration : 43mn 32s
Bit rate mode : Constant
Bit rate : 192 Kbps
Channel(s) : 2 channels
Channel positions : Front: L R
Sampling rate : 48.0 KHz
Bit depth : 16 bits
Compression mode : Lossy
Stream size : 59.8 MiB (10%)
Alignment : Split accross interleaves
Interleave, duration : 40 ms (1.00 video frame)
Interleave, preload duration : 500 ms








Релиз:
Перевод • Оксана Графутко
Роли озвучивали • Павел Ярощик, Ленар Гиматдинов, Марина Гассан
Звукорежиссер • Павел Квентов
Постер • Ксения Просветова
Релиз подготовил • Gater


Торрент залит при помощи парсера раздач для windows
Оценить

Оценка: 0.0 из 10 (голосов: 0)

Скачать торрент файл и удобный браузер в подарок Скачать 
ТипСериалы
Хэш релиза9fc8aa66cf786cd65e86b32f029ea1164430c1b4
Проверить
Этот релиз был проверен Schwanz
Доп. статус раздачи*  Не проверено
РаздающийПоследний раз был здесь 1 месяц 3 недели 1 день 21 час 33 минуты 17 секунд  назад
Размер7.08 GB (7,604,883,456 байт)
Добавлен1 июля 2017 в 18:09:09
Просмотров109
Взят10
Скачан0 раз
ВыложилSchwanz       
 -6 
Оценить
 +1 
Файлов
[Посмотреть список]
12 файлов
В раздаче
[Посмотреть список]
0 раздающих, 0 качающих = 0 пиров
Данные о торрентеПоказать данные
Сказали спасибо
 

Похожие раздачи

» » » Показать список похожих торрентов « « «

:: Список комментариев http://torrents32.net
Комментариев нет. Желаете добавить?

:: Добавить комментарий к релизу
Штампы (откроются в новом окошке)
 

Реклама Скрыть
Место рекламы
Copyright © 2011
Первый торрент трекер 3.0 | Гостевая книга
Яндекс.Метрика

Вверх