Главная Торренты Загрузить Непроверенные Закачка картинок Парсер Гостевая Правила Команда Форум
Первый торрент трекер 3.0
   Здравствуйте, гость ( Вход | Регистрация )

Главное меню

Торренты
Загрузить
Форум
Топ 10
Правила
ЧаВо
Администрация

Персональное меню

Настройки
Закладки
Мои торренты
Мои запросы
Мой бонус
Мои друзья
Мои соседи
Пригласить
Пользователи
Выход!

Сообщения

Полученные
Отправленные

Торренты

Все торренты
Загрузить торрент
Непроверенные
Закачка картинок
Парсер релизов

Торрент-клиенты






Правила

Правила
ЧаВо

Общение

форум
Страницы & Блог
Мы в контакте
Чат

Администрация

Команда сайта
Обратная связь
Гостевая книга

Категории

Худ. фильмы
HD-фильмы
Док. фильмы
Иное кино
ТВ-записи
Сериалы
Спорт
Юмор (видео)
Клипы
Видео из игр
Отеч. мультфильмы
Мультфильмы
Аниме
Прочее видео
ХХХ
Отеч. музыка
Иностр. музыка
Сборники музыка
Юмор (музыка)
OST-саундтреки
Прочее аудио
PC игры
Игры для консолей
Flash и мини-игры
Дополнение к играм
Win-софт
Nix-софт
Mac-софт
Худ. книги
Учебники
Аудио книги
Журналы
Прочие книги
Фото,картинки,обои
Mobile
Hentai
Манга
Подкасты,радиошоу
Unsorted
Temp


Стол заказов Скрыть

Ссылки Скрыть


Погода в Брянске Скрыть

Реклама Скрыть

Наша кнопка

Первый торрент трекер 3.0


Брянское радио Скрыть

Календарь Скрыть
Ноябрь 2017г.
ПВСЧПСВ
303112345
6789101112
13141516171819
20212223242526
27282930123
Московское время

Пожертвования Скрыть
Яндекс.Деньги:
41001624471351

VISA или MasterCard:

(изменить сумму
перевода можно
на этой странице)

Декабрь
Шарфик - 1000 р.
Nixon - 500 р.

Соц. закладки Скрыть

:: Детали релиза

Золотой торрент Мульти-трекерная раздача Майор Соколов. Игра без правил [S02] (2017) HDTVRip от Files-x

 
Изображение для Майор Соколов. Игра без правил  [S02]   (2017) HDTVRip  от Files-x (кликните для просмотра полного изображения)

Информация о фильме
Название: Майор Соколов. Игра без правил
Год выпуска: 2017
Жанр: Драма, криминал
Режиссер: Карен Захаров
В ролях: Константин Соловьёв, Анастасия Панина, Александр Наумов, Вадим Андреев, Филипп Бледный, Артур Ваха, Илья Бледный, Анатолий Кот, Татьяна Казючиц, Валерий Новиков, Виктор Овсянников, Марк Попов, Денис Дружинин, Лариса Маркина, Кирилл Анохин, Александр Пугачёв (II), Елена Саар, Александр Волков (XII), Дмитрий Митин, Лилия Кондрова, Веста Буркот

pic/opisanie.gif Продолжение истории о майоре управления собственной безопасности Владе Соколове. Принципиальный страж порядка продолжает нелегкую борьбу с преступностью в правоохранительных органах, но порой служебные дела слишком тесно переплетаются с личной жизнью майора и его коллег. Жену Олега Ершова — Магду — пытаются втянуть в наркобизнес. Андрей Гордеев собирается жениться на медсестре Татьяне, но неожиданная новость от его бывшей девушки Жени путает все карты. А Марину, возлюбленную Соколова, обвиняют в убийстве и объявляют в розыск. Почему никто не верит в невиновность девушки..


http://www.kinopoisk.ru/rating/1045903.gif

Выпущено: Россия
Студия: Кинокомпания "Пирамида" по заказу НТВ
Продолжительность: 16 x ~ 00:45:00
Перевод: Не требуется

Файл
Качество: HDTVRip
Видео: XviD, ~ 1550 Кбит/с, 720x400
Аудио: AC3, 2 ch, 192 Кбит/с


Скриншоты

MI
General
Общее
Полное имя : F:VideoMajor.sokolov.igra.bez.pravil.2017.HDTVRip.Files-x1.Major.sokolov.igra.bez.pravil.2017.HDTVRip.Files-x.avi
Формат : AVI
Формат/Информация : Audio Video Interleave
Размер файла : 550 Мбайт
Продолжительность : 45 м.
Общий поток : 1699 Кбит/сек
Программа кодирования : VirtualDubMod 1.5.10.3 | www.virtualdub-fr.org || (build 2550/release)
Библиотека кодирования : VirtualDubMod build 2550/release

Видео
Идентификатор : 0
Формат : MPEG-4 Visual
Профиль формата : Advanced Simple@L5
Параметр BVOP формата : 1
Параметр QPel формата : Нет
Параметр GMC формата : Без точки перехода
Параметр матрицы формата : Выборочная
Идентификатор кодека : XVID
Идентификатор кодека/Подсказка : XviD
Продолжительность : 45 м.
Битрейт : 1500 Кбит/сек
Ширина : 720 пикселей
Высота : 400 пикселей
Соотношение сторон : 16:9
Частота кадров : 25,000 кадров/сек
Цветовое пространство : YUV
Субдискретизация насыщенности : 4:2:0
Битовая глубина : 8 бит
Тип развёртки : Прогрессивная
Метод сжатия : С потерями
Бит/(Пиксели*Кадры) : 0.208
Размер потока : 485 Мбайт (88%)
Библиотека кодирования : XviD 73

Аудио
Идентификатор : 1
Формат : AC-3
Формат/Информация : Audio Coding 3
Расширение режима : CM (complete main)
Параметр Endianness формата : Big
Идентификатор кодека : 2000
Продолжительность : 45 м.
Вид битрейта : Постоянный
Битрейт : 192 Кбит/сек
Каналы : 2 канала
Расположение каналов : Front: L R
Частота : 48,0 КГц
Битовая глубина : 16 бит
Метод сжатия : С потерями
Размер потока : 62,2 Мбайт (11%)
Выравнивание : Разделение по промежуткам
Продолжительность промежутка : 40 мс. (1,00 видеокадр)
Время предзагрузки промежутка : 500 мс.


http://i29.fastpic.ru/big/2011/1030/ea/b1cf2ef64e49d1b69670beab9a74f7ea.png http://i57.fastpic.ru/big/2013/1212/16/ca4420031f482707507b7b957e10bc16.gif


http://s003.radikal.ru/i204/1410/ed/4f31a7578dfb.gif
Оценить

Оценка: 0.0 из 10 (голосов: 0)

Скачать торрент файл и удобный браузер в подарок Скачать 
ТипСериалы
Хэш релиза156e616b3fb2aacbc8b852b3611377ad0ee5a245
Проверить
Этот релиз был проверен Schwanz
Доп. статус раздачи*  Не проверено
РаздающийПоследний раз был здесь 4 месяца 1 неделю 8 часов 53 минуты 20 секунд  назад
Размер8.59 GB (9,225,332,736 байт)
Добавлен24 июня 2017 в 11:53:46
Просмотров372
Взят17
Скачан1 раз
ВыложилSchwanz       
 +1 
Оценить
 0 
Файлов
[Посмотреть список]
16 файлов
В раздаче
[Посмотреть список]
0 раздающих, 0 качающих = 0 пиров
Скачавшие
[Посмотреть список]
Открыть
Данные о торрентеПоказать данные
Сказали спасибо
 

Похожие раздачи

» » » Показать список похожих торрентов « « «

:: Список комментариев http://torrents32.net
Комментариев нет. Желаете добавить?

:: Добавить комментарий к релизу
Штампы (откроются в новом окошке)
 

Реклама Скрыть
Место рекламы
Copyright © 2011
Первый торрент трекер 3.0 | Гостевая книга
Яндекс.Метрика

Вверх