Главная Торренты Загрузить Непроверенные Закачка картинок Парсер Гостевая Правила Команда Форум
Первый торрент трекер 3.0
   Здравствуйте, гость ( Вход | Регистрация )

Главное меню

Торренты
Загрузить
Форум
Топ 10
Правила
ЧаВо
Администрация

Персональное меню

Настройки
Закладки
Мои торренты
Мои запросы
Мой бонус
Мои друзья
Мои соседи
Пригласить
Пользователи
Выход!

Сообщения

Полученные
Отправленные

Торренты

Все торренты
Загрузить торрент
Непроверенные
Закачка картинок
Парсер релизов

Торрент-клиенты






Правила

Правила
ЧаВо

Общение

форум
Страницы & Блог
Мы в контакте
Чат

Администрация

Команда сайта
Обратная связь
Гостевая книга

Категории

Худ. фильмы
HD-фильмы
Док. фильмы
Иное кино
ТВ-записи
Сериалы
Спорт
Юмор (видео)
Клипы
Видео из игр
Отеч. мультфильмы
Мультфильмы
Аниме
Прочее видео
ХХХ
Отеч. музыка
Иностр. музыка
Сборники музыка
Юмор (музыка)
OST-саундтреки
Прочее аудио
PC игры
Игры для консолей
Flash и мини-игры
Дополнение к играм
Win-софт
Nix-софт
Mac-софт
Худ. книги
Учебники
Аудио книги
Журналы
Прочие книги
Фото,картинки,обои
Mobile
Hentai
Манга
Подкасты,радиошоу
Unsorted
Temp


Стол заказов Скрыть

Ссылки Скрыть


Погода в Брянске Скрыть

Реклама Скрыть

Наша кнопка

Первый торрент трекер 3.0


Брянское радио Скрыть

Календарь Скрыть
Август 2017г.
ПВСЧПСВ
31123456
78910111213
14151617181920
21222324252627
28293031123
Московское время

Пожертвования Скрыть
Яндекс.Деньги:
41001624471351

VISA или MasterCard:

(изменить сумму
перевода можно
на этой странице)

Декабрь
Шарфик - 1000 р.
Nixon - 500 р.

Соц. закладки Скрыть

:: Детали релиза

Золотой торрент Мульти-трекерная раздача Саша Даша Глаша [01-04 из 04] (2015) WEB-DLRip от Files-x

 
Изображение для Саша Даша Глаша  [01-04 из 04] (2015) WEB-DLRip от Files-x (кликните для просмотра полного изображения)

Информация о фильме
Название: Саша Даша Глаша
Год выпуска: 2015
Жанр: Комедия, мелодрама
Режиссер: Игорь Ройзман
В ролях: Дмитрий Калязин, Екатерина Вуличенко, Анна Васильева, Фёдор Бавтриков, Ярослав Стаховский, Елена Махова, Юрий Нифонтов


pic/opisanie.gif Продолжение истории о майоре управления собственной безопасности Владе Соколове. Принципиальный страж порядка продолжает нелегкую борьбу с преступностью в правоохранительных органах, но порой служебные дела слишком тесно переплетаются с личной жизнью майора и его коллег. Жену Олега Ершова — Магду — пытаются втянуть в наркобизнес. Андрей Гордеев собирается жениться на медсестре Татьяне, но неожиданная новость от его бывшей девушки Жени путает все карты. А Марину, возлюбленную Соколова, обвиняют в убийстве и объявляют в розыск. Почему никто не верит в невиновность девушки..


http://www.kinopoisk.ru/rating/843285.gif

Выпущено: Россия
Студия: Марс Медиа Энтертейнмент
Продолжительность: 4 x ~ 00:45:00
Перевод: Не требуется

Файл
Качество: WEB-DLRip
Видео: XviD, ~ 1800 Кбит/с, 720x400
Аудио: AC3, 2 ch, 192 Кбит/с


Скриншоты

MI
General
Общее
Полное имя : E:Саша Даша Глаша.2015. WEB-DLRip.Files-x1. Саша Даша Глаша.2015.WEB-DLRip.Files-x.avi
Формат : AVI
Формат/Информация : Audio Video Interleave
Размер файла : 634 Мбайт
Продолжительность : 44 м. 18 с.
Общий поток : 2001 Кбит/сек
Программа кодирования : VirtualDubMod 1.5.10.3 | www.virtualdub-fr.org || (build 2550/release)
Библиотека кодирования : VirtualDubMod build 2550/release

Видео
Идентификатор : 0
Формат : MPEG-4 Visual
Профиль формата : Advanced Simple@L5
Параметр BVOP формата : 1
Параметр QPel формата : Нет
Параметр GMC формата : Без точки перехода
Параметр матрицы формата : Выборочная
Идентификатор кодека : XVID
Идентификатор кодека/Подсказка : XviD
Продолжительность : 44 м. 18 с.
Битрейт : 1799 Кбит/сек
Ширина : 720 пикселей
Высота : 400 пикселей
Соотношение сторон : 16:9
Частота кадров : 25,000 кадров/сек
Цветовое пространство : YUV
Субдискретизация насыщенности : 4:2:0
Битовая глубина : 8 бит
Тип развёртки : Прогрессивная
Метод сжатия : С потерями
Бит/(Пиксели*Кадры) : 0.250
Размер потока : 570 Мбайт (90%)
Библиотека кодирования : XviD 73

Аудио
Идентификатор : 1
Формат : AC-3
Формат/Информация : Audio Coding 3
Расширение режима : CM (complete main)
Параметр Endianness формата : Big
Идентификатор кодека : 2000
Продолжительность : 44 м. 18 с.
Вид битрейта : Постоянный
Битрейт : 192 Кбит/сек
Каналы : 2 канала
Расположение каналов : Front: L R
Частота : 48,0 КГц
Частота кадров : 31,250 кадров/сек (1536 spf)
Битовая глубина : 16 бит
Метод сжатия : С потерями
Размер потока : 60,9 Мбайт (10%)
Выравнивание : Разделение по промежуткам
Продолжительность промежутка : 40 мс. (1,00 видеокадр)
Время предзагрузки промежутка : 500 мс.



http://i57.fastpic.ru/big/2013/1212/16/ca4420031f482707507b7b957e10bc16.gif


http://s003.radikal.ru/i204/1410/ed/4f31a7578dfb.gif

Оценить

Оценка: 0.0 из 10 (голосов: 0)

Скачать торрент файл и удобный браузер в подарок Скачать 
ТипСериалы
Хэш релиза7a9fd564b41426c55dffb99b7ec438db2001f724
Проверить
Этот релиз был проверен Schwanz
Доп. статус раздачи*  Не проверено
РаздающийПоследний раз был здесь 1 месяц 3 недели 1 день 1 час 40 минут 37 секунд  назад
Размер2.50 GB (2,681,413,632 байт)
Добавлен24 июня 2017 в 11:51:12
Просмотров53
Взят17
Скачан1 раз
ВыложилSchwanz       
 -5 
Оценить
 0 
Файлов
[Посмотреть список]
4 файлов
В раздаче
[Посмотреть список]
0 раздающих, 0 качающих = 0 пиров
Скачавшие
[Посмотреть список]
Открыть
Данные о торрентеПоказать данные
Сказали спасибо
 

Похожие раздачи

» » » Показать список похожих торрентов « « «

:: Список комментариев http://torrents32.net
Комментариев нет. Желаете добавить?

:: Добавить комментарий к релизу
Штампы (откроются в новом окошке)
 

Реклама Скрыть
Место рекламы
Copyright © 2011
Первый торрент трекер 3.0 | Гостевая книга
Яндекс.Метрика

Вверх