Главная Торренты Загрузить Непроверенные Закачка картинок Парсер Гостевая Правила Команда Форум
Первый торрент трекер 3.0
   Здравствуйте, гость ( Вход | Регистрация )

Главное меню

Торренты
Загрузить
Форум
Топ 10
Правила
ЧаВо
Администрация

Персональное меню

Настройки
Закладки
Мои торренты
Мои запросы
Мой бонус
Мои друзья
Мои соседи
Пригласить
Пользователи
Выход!

Сообщения

Полученные
Отправленные

Торренты

Все торренты
Загрузить торрент
Непроверенные
Закачка картинок
Парсер релизов

Торрент-клиенты






Правила

Правила
ЧаВо

Общение

форум
Страницы & Блог
Мы в контакте
Чат

Администрация

Команда сайта
Обратная связь
Гостевая книга

Категории

Худ. фильмы
HD-фильмы
Док. фильмы
Иное кино
ТВ-записи
Сериалы
Спорт
Юмор (видео)
Клипы
Видео из игр
Отеч. мультфильмы
Мультфильмы
Аниме
Прочее видео
ХХХ
Отеч. музыка
Иностр. музыка
Сборники музыка
Юмор (музыка)
OST-саундтреки
Прочее аудио
PC игры
Игры для консолей
Flash и мини-игры
Дополнение к играм
Win-софт
Nix-софт
Mac-софт
Худ. книги
Учебники
Аудио книги
Журналы
Прочие книги
Фото,картинки,обои
Mobile
Hentai
Манга
Подкасты,радиошоу
Unsorted
Temp


Стол заказов Скрыть

Ссылки Скрыть


Погода в Брянске Скрыть

Реклама Скрыть

Наша кнопка

Первый торрент трекер 3.0


Брянское радио Скрыть

Календарь Скрыть
Август 2017г.
ПВСЧПСВ
31123456
78910111213
14151617181920
21222324252627
28293031123
Московское время

Пожертвования Скрыть
Яндекс.Деньги:
41001624471351

VISA или MasterCard:

(изменить сумму
перевода можно
на этой странице)

Декабрь
Шарфик - 1000 р.
Nixon - 500 р.

Соц. закладки Скрыть

:: Детали релиза

Золотой торрент Мульти-трекерная раздача 12 лет рабства / 12 Years a Slave (2013) BDRip-AVC от New-Team | RUS Transfer | Лицензия

 
Изображение для 12 лет рабства / 12 Years a Slave (2013) BDRip-AVC от New-Team | RUS Transfer | Лицензия (кликните для просмотра полного изображения)


12 лет рабства
12 Years a Slave

«The extraordinary true story of Solomon Northup»

http://i72.fastpic.ru/big/2015/0531/46/68ef8a2783b58e5344cc30bbd3f1b046.png


Страна: США, Великобритания
Жанр: драма, биография, история

Год выпуска: 2013
Продолжительность: 02:14:10

Перевод: Профессиональный (полное дублирование) [Blu-ray RUS]
Субтитры: нет
Оригинальная аудиодорожка: нет

Режиссер: Стив МакКуин / Steve McQueen

В ролях: Чиветель Эджиофор, Майкл Фассбендер, Лупита Нионго, Сара Полсон, Бенедикт Камбербэтч, Брэд Питт, Пол Дано, Пол Джаматти, Элфри Вудард, Эдеперо Одуйе, Куавенжане Уоллис, Дж.Д. Эвермор

pic/opisanie.gif
Соломон Нортап был женатым и образованным мужчиной, который жил и работал в штате Нью-Йорк, когда два человека однажды предложили ему привлекательную работу в Вашингтоне. По прибытии он был похищен, стал рабом и влачил жалкую жизнь, переходя от одного хозяина к другому.

http://s.rutor.info/imdb/pic/2024544.gif http://www.kinopoisk.ru/rating/606646.gif

Сэмпл

Качество видео: BDRip-AVC [12.let.rabstva.2013.D.Blu-ray.1080i.New-Team]
Формат видео: MKV
Видео кодек: AVC
Аудио кодек: AC3
Видео: 1493 Кбит/сек, 864*486 (16:9), в 25,000 кадров/сек, AVC
Аудио: русский, 192 Кбит/сек, 48 КГц, 16 бит, 2.0, AC3
Навигация по главам: есть

[/font]

Сравнение исходников: USA Transfer vs RUS Transfer

У RUS Transfer очень мало сцен обрезано по бокам, с трудом удалось найти пару кадров.
У USA Transfer лучше качество исходника, однако значительно срезан верх и низ.
Blu-ray RUS
http://i92.fastpic.ru/thumb/2017/0623/4e/ef988d263ef77da55cc483f85c91434e.jpeg http://i92.fastpic.ru/thumb/2017/0623/5f/f0eebf8a4226914820155f6e6a27af5f.jpeg http://i92.fastpic.ru/thumb/2017/0623/ca/5df25e9c2ce12b8ee5f87dc472e140ca.jpeg http://i92.fastpic.ru/thumb/2017/0623/0d/0e6c9679f12c9e7c5431f8c9336c8e0d.jpeg http://i92.fastpic.ru/thumb/2017/0623/47/f9f81058925e2859f580ae76cb676047.jpeg http://i92.fastpic.ru/thumb/2017/0623/a3/60417cda1668deff9fb55e29856a33a3.jpeg http://i92.fastpic.ru/thumb/2017/0623/98/e74871b0b30f83a89b840050c298c798.jpeg http://i92.fastpic.ru/thumb/2017/0623/b7/7909acea6df962cc91645723b38301b7.jpeg
Blu-ray USA
http://i92.fastpic.ru/thumb/2017/0623/ea/d42e87fd45b6edf83e637abcd125a2ea.jpeg http://i92.fastpic.ru/thumb/2017/0623/27/f3a1380c03e922e535c2b482654d1927.jpeg http://i92.fastpic.ru/thumb/2017/0623/e6/2aed44d80a530269b39d2003c0e437e6.jpeg http://i92.fastpic.ru/thumb/2017/0623/77/9281cd242e0d643b62635c3876ef7f77.jpeg http://i92.fastpic.ru/thumb/2017/0623/fd/828a455459b442343b97991862f8a0fd.jpeg http://i92.fastpic.ru/thumb/2017/0623/29/a63713327a1b8f05f75f72db7a118a29.jpeg http://i92.fastpic.ru/thumb/2017/0623/79/6e084b67ca27d02466b0b3668b51a579.jpeg http://i92.fastpic.ru/thumb/2017/0623/bf/3c6153be2415c45d11cfc4797c57b7bf.jpeg


x264/MediaInfo


x264 [info]: frame I:1067 Avg QP:16.61 size: 60755
x264 [info]: frame P:43311 Avg QP:18.80 size: 16848
x264 [info]: frame B:148497 Avg QP:21.28 size: 4343

Общее
Уникальный идентификатор : 234728022290724100175501427367816020952 (0xB096F90251E9E53F8C6DC3DED33143D8)
Полное имя : M:!!!!!!Rips!12 Years a Slaverus Blu-ray12.Years.a.Slave.2013.BDRip-AVC.RUS.Transfer.stalkerok.new-team.mkv
Формат : Matroska
Версия формата : Version 4 / Version 2
Размер файла : 1,51 Гбайт
Продолжительность : 2 ч. 8 м.
Общий поток : 1686 Кбит/сек
Название фильма : 12 Years a Slave (2013) (Rip by stalkerok)
Дата кодирования : UTC 2017-06-23 18:13:12
Программа кодирования : mkvmerge v8.6.1 ('Flying') 64bit
Библиотека кодирования : libebml v1.3.3 libmatroska v1.4.4

Видео
Идентификатор : 1
Формат : AVC
Формат/Информация : Advanced Video Codec
Профиль формата : High@L4.1
Параметр CABAC формата : Да
Параметр ReFrames формата : 13 кадров
Идентификатор кодека : V_MPEG4/ISO/AVC
Продолжительность : 2 ч. 8 м.
Битрейт : 1493 Кбит/сек
Ширина : 864 пикселя
Высота : 486 пикселей
Соотношение сторон : 16:9
Режим частоты кадров : Постоянный
Частота кадров : 25,000 кадров/сек
Цветовое пространство : YUV
Субдискретизация насыщенности : 4:2:0
Битовая глубина : 8 бит
Тип развёртки : Прогрессивная
Бит/(Пиксели*Кадры) : 0.142
Размер потока : 1,34 Гбайт (89%)
Заголовок : 12 Years a Slave (2013) (Rip by stalkerok)
Библиотека кодирования : x264 core 150 r2818 45 3daaad6 7mod [8-bit@all X86_64]
Настройки программы : cabac=1 / ref=13 / deblock=1:-3:-2 / analyse=0x3:0x133 / me=umh / subme=10 / psy=1 / fade_compensate=0.00 / psy_rd=1.00:0.00 / mixed_ref=1 / me_range=32 / chroma_me=1 / trellis=2 / 8x8dct=1 / cqm=0 / deadzone=21,11 / fast_pskip=0 / chroma_qp_offset=-2 / threads=12 / lookahead_threads=3 / sliced_threads=0 / nr=0 / decimate=1 / interlaced=0 / bluray_compat=0 / constrained_intra=0 / fgo=0 / bframes=14 / b_pyramid=2 / b_adapt=2 / b_bias=0 / direct=3 / weightb=1 / open_gop=0 / weightp=2 / keyint=250 / keyint_min=25 / scenecut=40 / intra_refresh=0 / rc_lookahead=60 / rc=crf / mbtree=0 / crf=18.8000 / qcomp=0.65 / qpmin=0:0:0 / qpmax=69:69:69 / qpstep=4 / vbv_maxrate=50000 / vbv_bufsize=62500 / crf_max=0.0 / nal_hrd=none / filler=0 / ip_ratio=1.40 / pb_ratio=1.30 / aq=3:0.90 / aq-sensitivity=10.00 / aq-factor=1.00:1.00:1.00 / aq2=0 / aq3=0
Default : Да
Forced : Нет

Аудио
Идентификатор : 2
Формат : AC-3
Формат/Информация : Audio Coding 3
Расширение режима : CM (complete main)
Параметр Endianness формата : Big
Идентификатор кодека : A_AC3
Продолжительность : 2 ч. 8 м.
Вид битрейта : Постоянный
Битрейт : 192 Кбит/сек
Каналы : 2 канала
Расположение каналов : Front: L R
Частота : 48,0 КГц
Частота кадров : 31,250 кадров/сек (1536 spf)
Метод сжатия : С потерями
Размер потока : 177 Мбайт (11%)
Язык : Russian
Default : Да
Forced : Нет

Меню
00:00:00.000 : en:Chapter 1
00:05:46.160 : en:Chapter 2
00:15:36.840 : en:Chapter 3
00:23:51.800 : en:Chapter 4
00:31:28.000 : en:Chapter 5
00:36:55.040 : en:Chapter 6
00:43:27.600 : en:Chapter 7
00:50:10.200 : en:Chapter 8
00:57:00.160 : en:Chapter 9
01:03:52.160 : en:Chapter 10
01:12:14.800 : en:Chapter 11
01:18:34.200 : en:Chapter 12
01:25:02.760 : en:Chapter 13
01:34:05.200 : en:Chapter 14
01:40:59.120 : en:Chapter 15
01:49:15.800 : en:Chapter 16
01:55:18.920 : en:Chapter 17
02:03:06.280 : en:Chapter 18





http://i92.fastpic.ru/thumb/2017/0623/8a/ba2ee70d2a1c40e5b783447e6ca1698a.jpeg http://i92.fastpic.ru/thumb/2017/0623/5f/38a1c714263efa057914d09b64250b5f.jpeg http://i92.fastpic.ru/thumb/2017/0623/1d/ccdea0b39d730f1207029b7672b1941d.jpeg http://i92.fastpic.ru/thumb/2017/0623/8e/e35e59d2b1919c294b0e82a7287f5d8e.jpeg http://i92.fastpic.ru/thumb/2017/0623/b4/d0333953c799d66bfaec39e4578542b4.jpeg http://i92.fastpic.ru/thumb/2017/0623/49/68b4b6c0670ad0b1b433848f49225749.jpeg

http://i72.fastpic.ru/big/2015/0531/a2/ba66637574078c2cb182849456d8b5a2.png

Оценить

Оценка: 0.0 из 10 (голосов: 0)

Скачать торрент файл и удобный браузер в подарок Скачать 
ТипХуд. фильмы
Хэш релиза076de3ea21fe62494ea6b3a9efb3a3adaf4b703b
Проверить
Этот релиз был проверен Schwanz
Доп. статус раздачи*  Не проверено
РаздающийПоследний раз был здесь 1 месяц 1 неделю 6 дней 20 часов 58 минут 16 секунд  назад
Размер1.51 GB (1,626,233,883 байт)
Добавлен24 июня 2017 в 11:39:34
Просмотров46
Взят10
Скачан1 раз
ВыложилSchwanz       
 -6 
Оценить
 0 
В раздаче
[Посмотреть список]
0 раздающих, 0 качающих = 0 пиров
Скачавшие
[Посмотреть список]
Данные о торрентеПоказать данные
Сказали спасибо
 

Похожие раздачи

» » » Показать список похожих торрентов « « «

:: Список комментариев http://torrents32.net
Комментариев нет. Желаете добавить?

:: Добавить комментарий к релизу
Штампы (откроются в новом окошке)
 

Реклама Скрыть
Место рекламы
Copyright © 2011
Первый торрент трекер 3.0 | Гостевая книга
Яндекс.Метрика

Вверх