Главная Торренты Загрузить Непроверенные Закачка картинок Парсер Гостевая Правила Команда Форум
Первый торрент трекер 3.0
   Здравствуйте, гость ( Вход | Регистрация )

Главное меню

Торренты
Загрузить
Форум
Топ 10
Правила
ЧаВо
Администрация

Персональное меню

Настройки
Закладки
Мои торренты
Мои запросы
Мой бонус
Мои друзья
Мои соседи
Пригласить
Пользователи
Выход!

Сообщения

Полученные
Отправленные

Торренты

Все торренты
Загрузить торрент
Непроверенные
Закачка картинок
Парсер релизов

Торрент-клиенты






Правила

Правила
ЧаВо

Общение

форум
Страницы & Блог
Мы в контакте
Чат

Администрация

Команда сайта
Обратная связь
Гостевая книга

Категории

Худ. фильмы
HD-фильмы
Док. фильмы
Иное кино
ТВ-записи
Сериалы
Спорт
Юмор (видео)
Клипы
Видео из игр
Отеч. мультфильмы
Мультфильмы
Аниме
Прочее видео
ХХХ
Отеч. музыка
Иностр. музыка
Сборники музыка
Юмор (музыка)
OST-саундтреки
Прочее аудио
PC игры
Игры для консолей
Flash и мини-игры
Дополнение к играм
Win-софт
Nix-софт
Mac-софт
Худ. книги
Учебники
Аудио книги
Журналы
Прочие книги
Фото,картинки,обои
Mobile
Hentai
Манга
Подкасты,радиошоу
Unsorted
Temp


Стол заказов Скрыть

Ссылки Скрыть


Погода в Брянске Скрыть

Реклама Скрыть

Наша кнопка

Первый торрент трекер 3.0


Брянское радио Скрыть

Календарь Скрыть
Ноябрь 2017г.
ПВСЧПСВ
303112345
6789101112
13141516171819
20212223242526
27282930123
Московское время

Пожертвования Скрыть
Яндекс.Деньги:
41001624471351

VISA или MasterCard:

(изменить сумму
перевода можно
на этой странице)

Декабрь
Шарфик - 1000 р.
Nixon - 500 р.

Соц. закладки Скрыть

:: Детали релиза

Мульти-трекерная раздача Время псов / Hunter's Prayer (2017) WEB-DLRip | iTunes

 
Изображение для Время псов / Hunter

Информация о фильме
Название: Время псов
Оригинальное название: Hunter's Prayer
Год выхода: 2017
Жанр: Боевик
Режиссер: Джонатан Мостоу
В ролях: Сэм Уортингтон, Мартин Компстон, Одейя Раш, Вероника Эчеги, Аллен Лич, Эми Ландекер, Дин Джаггер III, Катя Бокор, Сэм Каллингворт

pic/opisanie.gif
Чтобы преподать урок своему работнику, крупный бизнесмен мистер Эдисон, нанимает киллера по имени Лукас. Лукасу нужно убить дочь бывшего адвоката мистера Эдисона. Но Лукас не справляется с заданием, сам становится целью и теперь они вместе вынуждены бежать от убийц Эдисона

http://s.rutor.info/imdb/pic/2674358.gif http://www.kinopoisk.ru/rating/736234.gifhttp://i66.fastpic.ru/big/2016/0116/9a/a582c73dbb266bc095c7c0f47e54409a.gif

Страна: Германия
Студия: Apollo Media, FilmEngine, Full Clip Productions, HP Yorkshire Limited, Maple Leaf Films, Screen Yorkshire, Vandal Entertainment
Продолжительность: 01:30:50
Перевод: Дублированный [iTunes]


http://lostpix.com/img/2016-07/27/y6ewlcgwiywbsm8spjbgf2xo8.gif
Файл
Формат: AVI
Качество: WEB-DLRip
Видео: XviD, 720x304, 23.976 fps, 1920 kbps
Звук: AC3, 6 ch, 384 kbps
Субтитры: Нет

MI


Общее
Complete name : D:загрузкиThe.Hunters.Prayer.2017.D.WEB-DLRip.avi
Format : AVI
Format/Info : Audio Video Interleave
File size : 1,47 Гбайт
Duration : 1 ч. 30 м.
Overall bit rate : 2313 Кбит/сек
Writing application : VirtualDubMod 1.5.10.3 | www.virtualdub-fr.org || (build 2550/release)
Writing library : VirtualDubMod build 2550/release

Видео
ID : 0
Format : MPEG-4 Visual
Format profile : Advanced Simple@L5
Format settings, BVOP : 1
Format settings, QPel : Нет
Format settings, GMC : Без точки перехода
Format settings, Matrix : Выборочная
Codec ID : XVID
Codec ID/Hint : XviD
Duration : 1 ч. 30 м.
Bit rate : 1920 Кбит/сек
Width : 720 пикселей
Height : 304 пикселя
Display aspect ratio : 2,35:1
Frame rate : 23,976 (24000/1001) кадра/сек
Color space : YUV
Chroma subsampling : 4:2:0
Bit depth : 8 бит
Scan type : Прогрессивная
Compression mode : С потерями
Bits/(Pixel*Frame) : 0.366
Stream size : 1,22 Гбайт (83%)
Writing library : XviD 73

Аудио
ID : 1
Format : AC-3
Format/Info : Audio Coding 3
Format settings, Endianness : Big
Codec ID : 2000
Duration : 1 ч. 30 м.
Bit rate mode : Постоянный
Bit rate : 384 Кбит/сек
Channel(s) : 6 каналов
Channel positions : Front: L C R, Side: L R, LFE
Sampling rate : 48,0 КГц
Frame rate : 31,250 кадров/сек (1536 spf)
Bit depth : 16 бит
Compression mode : С потерями
Stream size : 249 Мбайт (17%)
Alignment : Разделение по промежуткам
Interleave, duration : 42 мс. (1,00 видеокадр)
Interleave, preload duration : 500 мс.
Service kind : Complete Main



Скриншоты
http://i92.fastpic.ru/thumb/2017/0530/0e/82577388038e12bfe23ba172e5aa040e.jpeg http://i92.fastpic.ru/thumb/2017/0530/54/c8a3374980521c1258058ad0866a4d54.jpeg http://i92.fastpic.ru/thumb/2017/0530/c0/5f3d2f5e045938ae61858b9277eaa2c0.jpeg http://i92.fastpic.ru/thumb/2017/0530/60/481275ec3530daf7aed7da043bb13d60.jpeg


Торрент залит при помощи парсера раздач для windows
Оценить

Оценка: 2.0 из 10 (голосов: 1)

Скачать торрент файл и удобный браузер в подарок Скачать 
ТипХуд. фильмы
Хэш релизаe7bbe01ca7538ef1dcf0d4ba750d896433177bee
Проверить
Этот релиз был проверен Schwanz
Доп. статус раздачи*  Не проверено
РаздающийПоследний раз был здесь 3 месяца 2 недели 3 дня 20 часов 13 минут 40 секунд  назад
Размер1.47 GB (1,575,749,632 байт)
Добавлен22 июня 2017 в 11:21:42
Просмотров164
Взят23
Скачан3 раз
ВыложилSchwanz       
 +1 
Оценить
 0 
В раздаче
[Посмотреть список]
0 раздающих, 0 качающих = 0 пиров
Скачавшие
[Посмотреть список]
Данные о торрентеПоказать данные
Сказали спасибо
 

Похожие раздачи

» » » Показать список похожих торрентов « « «

:: Список комментариев http://torrents32.net
Комментариев нет. Желаете добавить?

:: Добавить комментарий к релизу
Штампы (откроются в новом окошке)
 

Реклама Скрыть
Место рекламы
Copyright © 2011
Первый торрент трекер 3.0 | Гостевая книга
Яндекс.Метрика

Вверх