Главная Торренты Загрузить Непроверенные Закачка картинок Парсер Гостевая Правила Команда Форум
Первый торрент трекер 3.0
   Здравствуйте, гость ( Вход | Регистрация )

Главное меню

Торренты
Загрузить
Форум
Топ 10
Правила
ЧаВо
Администрация

Персональное меню

Настройки
Закладки
Мои торренты
Мои запросы
Мой бонус
Мои друзья
Мои соседи
Пригласить
Пользователи
Выход!

Сообщения

Полученные
Отправленные

Торренты

Все торренты
Загрузить торрент
Непроверенные
Закачка картинок
Парсер релизов

Торрент-клиенты






Правила

Правила
ЧаВо

Общение

форум
Страницы & Блог
Мы в контакте
Чат

Администрация

Команда сайта
Обратная связь
Гостевая книга

Категории

Худ. фильмы
HD-фильмы
Док. фильмы
Иное кино
ТВ-записи
Сериалы
Спорт
Юмор (видео)
Клипы
Видео из игр
Отеч. мультфильмы
Мультфильмы
Аниме
Прочее видео
ХХХ
Отеч. музыка
Иностр. музыка
Сборники музыка
Юмор (музыка)
OST-саундтреки
Прочее аудио
PC игры
Игры для консолей
Flash и мини-игры
Дополнение к играм
Win-софт
Nix-софт
Mac-софт
Худ. книги
Учебники
Аудио книги
Журналы
Прочие книги
Фото,картинки,обои
Mobile
Hentai
Манга
Подкасты,радиошоу
Unsorted
Temp


Стол заказов Скрыть

Ссылки Скрыть


Погода в Брянске Скрыть

Реклама Скрыть

Наша кнопка

Первый торрент трекер 3.0


Брянское радио Скрыть

Календарь Скрыть
Сентябрь 2017г.
ПВСЧПСВ
28293031123
45678910
11121314151617
18192021222324
2526272829301
Московское время

Пожертвования Скрыть
Яндекс.Деньги:
41001624471351

VISA или MasterCard:

(изменить сумму
перевода можно
на этой странице)

Декабрь
Шарфик - 1000 р.
Nixon - 500 р.

Соц. закладки Скрыть

:: Детали релиза

Мульти-трекерная раздача Доспехи бога: В поисках сокровищ / Кунг-фу йога / Gong Fu Yu Jia / Kung-Fu Yoga (2017) BDRip-AVC от OlLanDGroup | iTunes

 
Изображение для Доспехи бога: В поисках сокровищ / Кунг-фу йога / Gong Fu Yu Jia / Kung-Fu Yoga (2017) BDRip-AVC от OlLanDGroup | iTunes (кликните для просмотра полного изображения)

Доспехи бога: В поисках сокровищ (Кунг-фу йога) / Gong Fu Yu Jia (Kung-Fu Yoga)




Год выпуска: 2017
Страна: Индия, Китай
Производство: Shinework Pictures, Sparkle Roll Media, Taihe Entertainment
Жанр: Боевик, комедия, детектив, приключения

Режиссёр: Стэнли Тун
В ролях: Джеки Чан, Аариф Ли, Исин Чжан, Сону Суд, Мия Муци, Диша Патани, Амира Дастур, Чжан Голи, Ху Мин, Эрик Цан, Фатих Угурлу, Дэмиэн Мевис, Кевин Ли, Томер Оз, Пол Филип Кларк, Эскиндир Тесфай

Перевод: Дублированный | iTunes
Субтитры: Английские

pic/opisanie.gif Профессора археологии Джека Си ждет по-настоящему увлекательное приключение. Нужно разгадать массу загадок и найти несметные сокровища древнего королевства. За самым большим кладом в истории охотится еще и могущественный преступный синдикат. Джеку вместе с командой предстоит проявить умения и смекалку, и завоевать сердце принцессы.

http://s.rutor.info/imdb/pic/4217392.gif http://www.kinopoisk.ru/rating/851808.gif

Качество: BDRip-AVC
Продолжительность: 01:47:04

Формат: MKV
Видео кодек: MPEG-4 AVC
Аудио кодек: AC3
Видео: 1024x428 (2.40:1), 24.000 fps, x264 ~2888 kbps avg, 0.275 bit/pixel
Аудио: 48 kHz, AC3 Dolby Digital, 3/2 (L,C,R,l,r) LFE ch, ~384.00 kbps avg | RUS (iTunes)

Дата премьеры (мир): 26 января 2017
Дата премьеры (РФ): 8 мая 2017, «Централ Партнершип»


MediaInfo

Общее
Уникальный идентификатор : 209999056186240122635959204383071046495 (0x9DFC58D8F02BC7C7900A3D95B53E8B5F)
Полное имя : D:Kung.Fu.Yoga.2017.BDRip(AVC).OlLanDGroup.mkv
Формат : Matroska
Версия формата : Version 2
Размер файла : 2,45 Гбайт
Продолжительность : 1 ч. 47 м.
Общий поток : 3272 Кбит/сек
Название фильма : Kung.Fu.Yoga.2017 - TorpedoUK
Дата кодирования : UTC 2017-06-09 12:21:51
Программа кодирования : mkvmerge v7.8.0 ('River Man') 32bit built on Apr 3 2015 12:11:22
Библиотека кодирования : libebml v1.3.1 libmatroska v1.4.2

Видео
Идентификатор : 1
Формат : AVC
Формат/Информация : Advanced Video Codec
Профиль формата : High@L4.1
Параметр CABAC формата : Да
Параметр ReFrames формата : 10 кадров
Идентификатор кодека : V_MPEG4/ISO/AVC
Продолжительность : 1 ч. 47 м.
Битрейт : 2888 Кбит/сек
Ширина : 1024 пикселя
Высота : 428 пикселей
Соотношение сторон : 2,40:1
Режим частоты кадров : Постоянный
Частота кадров : 24,000 кадра/сек
Цветовое пространство : YUV
Субдискретизация насыщенности : 4:2:0
Битовая глубина : 8 бит
Тип развёртки : Прогрессивная
Бит/(Пиксели*Кадры) : 0.275
Размер потока : 2,11 Гбайт (86%)
Библиотека кодирования : x264 core 146 r2538 121396c
Настройки программы : cabac=1 / ref=10 / deblock=1:-3:-3 / analyse=0x3:0x133 / me=umh / subme=11 / psy=1 / psy_rd=1.00:0.07 / mixed_ref=1 / me_range=48 / chroma_me=1 / trellis=2 / 8x8dct=1 / cqm=0 / deadzone=21,11 / fast_pskip=0 / chroma_qp_offset=-3 / threads=6 / lookahead_threads=1 / sliced_threads=0 / nr=0 / decimate=0 / interlaced=0 / bluray_compat=0 / constrained_intra=0 / bframes=10 / b_pyramid=2 / b_adapt=2 / b_bias=0 / direct=3 / weightb=1 / open_gop=0 / weightp=2 / keyint=240 / keyint_min=24 / scenecut=40 / intra_refresh=0 / rc_lookahead=40 / rc=2pass / mbtree=0 / bitrate=2888 / ratetol=1.0 / qcomp=0.60 / qpmin=0 / qpmax=69 / qpstep=4 / cplxblur=20.0 / qblur=0.5 / vbv_maxrate=50000 / vbv_bufsize=62500 / nal_hrd=none / filler=0 / ip_ratio=1.40 / pb_ratio=1.30 / aq=1:1.00
Язык : English
Default : Да
Forced : Нет

Аудио
Идентификатор : 2
Формат : AC-3
Формат/Информация : Audio Coding 3
Расширение режима : CM (complete main)
Параметр Endianness формата : Big
Идентификатор кодека : A_AC3
Продолжительность : 1 ч. 47 м.
Вид битрейта : Постоянный
Битрейт : 384 Кбит/сек
Каналы : 6 каналов
Расположение каналов : Front: L C R, Side: L R, LFE
Частота : 48,0 КГц
Частота кадров : 31,250 кадров/сек (1536 spf)
Битовая глубина : 16 бит
Метод сжатия : С потерями
Размер потока : 294 Мбайт (12%)
Заголовок : iTunes
Язык : Russian
Default : Да
Forced : Нет

Текст
Идентификатор : 3
Формат : UTF-8
Идентификатор кодека : S_TEXT/UTF8
Идентификатор кодека/Информация : UTF-8 Plain Text
Заголовок : Full
Язык : English
Default : Нет
Forced : Нет

Меню
00:00:00.000 : en:Chapter 01
00:10:49.708 : en:Chapter 02
00:19:09.125 : en:Chapter 03
00:27:54.708 : en:Chapter 04
00:36:04.125 : en:Chapter 05
00:43:04.416 : en:Chapter 06
00:56:54.166 : en:Chapter 07
01:03:21.083 : en:Chapter 08
01:11:30.750 : en:Chapter 09
01:22:44.166 : en:Chapter 10
01:30:59.291 : en:Chapter 11
01:38:54.541 : en:Chapter 12

Скриншоты

http://s019.radikal.ru/i609/1706/2c/5c9b8d49f466t.jpg http://s019.radikal.ru/i632/1706/e1/b682eedf1306t.jpg

http://s011.radikal.ru/i315/1706/aa/60aa8c363838t.jpg http://s019.radikal.ru/i632/1706/cc/2403711e52a0t.jpg

http://s41.radikal.ru/i091/1706/6b/e8c532973fcdt.jpg http://s014.radikal.ru/i329/1706/fd/160ef7c5a4c4t.jpg

Оценить

Оценка: 0.0 из 10 (голосов: 0)

Скачать торрент файл и удобный браузер в подарок Скачать 
ТипХуд. фильмы
Хэш релиза49b591077505b1cba8177c69a7541c97acd9726e
Проверить
Этот релиз был проверен Schwanz
Доп. статус раздачи*  Не проверено
РаздающийПоследний раз был здесь 2 недели 4 дня 19 часов 15 минут 49 секунд  назад
Размер2.45 GB (2,628,151,811 байт)
Добавлен9 июня 2017 в 21:49:56
Просмотров262
Взят45
Скачан7 раз
ВыложилSchwanz       
 -7 
Оценить
 0 
В раздаче
[Посмотреть список]
0 раздающих, 0 качающих = 0 пиров
Скачавшие
[Посмотреть список]
Данные о торрентеПоказать данные
Сказали спасибо
 

Похожие раздачи

» » » Показать список похожих торрентов « « «

:: Список комментариев http://torrents32.net
Комментариев нет. Желаете добавить?

:: Добавить комментарий к релизу
Штампы (откроются в новом окошке)
 

Реклама Скрыть
Место рекламы
Copyright © 2011
Первый торрент трекер 3.0 | Гостевая книга
Яндекс.Метрика

Вверх