Главная Торренты Загрузить Непроверенные Закачка картинок Парсер Гостевая Правила Команда Форум
Первый торрент трекер 3.0
   Здравствуйте, гость ( Вход | Регистрация )

Главное меню

Торренты
Загрузить
Форум
Топ 10
Правила
ЧаВо
Администрация

Персональное меню

Настройки
Закладки
Мои торренты
Мои запросы
Мой бонус
Мои друзья
Мои соседи
Пригласить
Пользователи
Выход!

Сообщения

Полученные
Отправленные

Торренты

Все торренты
Загрузить торрент
Непроверенные
Закачка картинок
Парсер релизов

Торрент-клиенты






Правила

Правила
ЧаВо

Общение

форум
Страницы & Блог
Мы в контакте
Чат

Администрация

Команда сайта
Обратная связь
Гостевая книга

Категории

Худ. фильмы
HD-фильмы
Док. фильмы
Иное кино
ТВ-записи
Сериалы
Спорт
Юмор (видео)
Клипы
Видео из игр
Отеч. мультфильмы
Мультфильмы
Аниме
Прочее видео
ХХХ
Отеч. музыка
Иностр. музыка
Сборники музыка
Юмор (музыка)
OST-саундтреки
Прочее аудио
PC игры
Игры для консолей
Flash и мини-игры
Дополнение к играм
Win-софт
Nix-софт
Mac-софт
Худ. книги
Учебники
Аудио книги
Журналы
Прочие книги
Фото,картинки,обои
Mobile
Hentai
Манга
Подкасты,радиошоу
Unsorted
Temp


Стол заказов Скрыть

Ссылки Скрыть


Погода в Брянске Скрыть

Реклама Скрыть

Наша кнопка

Первый торрент трекер 3.0


Брянское радио Скрыть

Календарь Скрыть
Август 2017г.
ПВСЧПСВ
31123456
78910111213
14151617181920
21222324252627
28293031123
Московское время

Пожертвования Скрыть
Яндекс.Деньги:
41001624471351

VISA или MasterCard:

(изменить сумму
перевода можно
на этой странице)

Декабрь
Шарфик - 1000 р.
Nixon - 500 р.

Соц. закладки Скрыть

:: Детали релиза

Мульти-трекерная раздача Кухня. Последняя битва (2017) WEB-DLRip-AVC от OlLanDGroup | iTunes

 
Изображение для Кухня. Последняя битва (2017) WEB-DLRip-AVC от OlLanDGroup | iTunes (кликните для просмотра полного изображения)

Кухня. Последняя битва
«Вкусная комедия»



Год выпуска: 2017
Страна: Россия
Производство: Фонд кино, Forever Films, Yellow, Black and White
Жанр: Комедия

Режиссёр: Антон Федотов
В ролях: Дмитрий Нагиев, Дмитрий Назаров, Сергей Лавыгин, Олег Табаков, Анфиса Черных, Кирилл Ковбас, Сергей Епишев, Никита Тарасов, Михаил Тарабукин, Михаил Башкатов

Перевод: Не требуется
Субтитры: Нет

pic/opisanie.gif Виктору Баринову по личной просьбе Президента России предстоит отправиться в Сочи на чемпионат мира среди профессиональных поваров и доказать, что он и его команда лучшие в мире! В тяжелой борьбе за звание победителя Шефу будет помогать «тёмная лошадка» — его родной сын Иван, о котором он неожиданно узнал накануне чемпионата.

http://www.kinopoisk.ru/rating/840261.gif

Качество: WEB-DLRip-AVC
Продолжительность: 01:54:27

Формат: MKV
Видео кодек: MPEG-4 AVC
Аудио кодек: AC3
Видео: 1024x428 (2.40:1), 24,000 fps, x264 ~2188 kbps avg, 0.208 bit/pixel
Аудио: 48 kHz, AC3 Dolby Digital, 3/2 (L,C,R,l,r) LFE ch, ~384.00 kbps avg | RUS (iTunes)


Дата премьеры (РФ): 20 апреля 2017, «Централ Партнершип»


MediaInfo

Общее
Уникальный идентификатор : 175692736289895833323548444391759642992 (0x842D30AFD8B1971BBD4878C21EAF8170)
Полное имя : D:Kukhnya.Poslednyaya.bitva.2017.WEB-DLRip(AVC).OlLanDGroup.mkv
Формат : Matroska
Версия формата : Version 2
Размер файла : 2,06 Гбайт
Продолжительность : 1 ч. 54 м.
Общий поток : 2572 Кбит/сек
Название фильма : Kukhnya.Poslednyaya.bitva.2017 #TorpedoUK#
Дата кодирования : UTC 2017-05-30 17:16:02
Программа кодирования : mkvmerge v7.8.0 ('River Man') 32bit built on Apr 3 2015 12:11:22
Библиотека кодирования : libebml v1.3.1 libmatroska v1.4.2

Видео
Идентификатор : 1
Формат : AVC
Формат/Информация : Advanced Video Codec
Профиль формата : High@L4.1
Параметр CABAC формата : Да
Параметр ReFrames формата : 10 кадров
Идентификатор кодека : V_MPEG4/ISO/AVC
Продолжительность : 1 ч. 54 м.
Битрейт : 2188 Кбит/сек
Ширина : 1024 пикселя
Высота : 428 пикселей
Соотношение сторон : 2,40:1
Режим частоты кадров : Постоянный
Частота кадров : 24,000 кадра/сек
Цветовое пространство : YUV
Субдискретизация насыщенности : 4:2:0
Битовая глубина : 8 бит
Тип развёртки : Прогрессивная
Бит/(Пиксели*Кадры) : 0.208
Размер потока : 1,71 Гбайт (83%)
Библиотека кодирования : x264 core 146 r2538 121396c
Настройки программы : cabac=1 / ref=10 / deblock=1:-3:-3 / analyse=0x3:0x133 / me=umh / subme=11 / psy=1 / psy_rd=1.00:0.07 / mixed_ref=1 / me_range=48 / chroma_me=1 / trellis=2 / 8x8dct=1 / cqm=0 / deadzone=21,11 / fast_pskip=0 / chroma_qp_offset=-3 / threads=6 / lookahead_threads=1 / sliced_threads=0 / nr=0 / decimate=0 / interlaced=0 / bluray_compat=0 / constrained_intra=0 / bframes=10 / b_pyramid=2 / b_adapt=2 / b_bias=0 / direct=3 / weightb=1 / open_gop=0 / weightp=2 / keyint=240 / keyint_min=24 / scenecut=40 / intra_refresh=0 / rc_lookahead=40 / rc=2pass / mbtree=0 / bitrate=2188 / ratetol=1.0 / qcomp=0.60 / qpmin=0 / qpmax=69 / qpstep=4 / cplxblur=20.0 / qblur=0.5 / vbv_maxrate=50000 / vbv_bufsize=62500 / nal_hrd=none / filler=0 / ip_ratio=1.40 / pb_ratio=1.30 / aq=1:1.00
Язык : English
Default : Да
Forced : Нет

Аудио
Идентификатор : 2
Формат : AC-3
Формат/Информация : Audio Coding 3
Расширение режима : CM (complete main)
Параметр Endianness формата : Big
Идентификатор кодека : A_AC3
Продолжительность : 1 ч. 54 м.
Вид битрейта : Постоянный
Битрейт : 384 Кбит/сек
Каналы : 6 каналов
Расположение каналов : Front: L C R, Side: L R, LFE
Частота : 48,0 КГц
Частота кадров : 31,250 кадров/сек (1536 spf)
Битовая глубина : 16 бит
Метод сжатия : С потерями
Размер потока : 314 Мбайт (15%)
Заголовок : AC3 5.1 @ 384 kbps
Язык : Russian
Default : Да
Forced : Нет

Меню
00:00:00.000 : en:1
00:08:16.291 : en:2
00:14:15.291 : en:3
00:19:46.791 : en:4
00:25:36.916 : en:5
00:31:07.707 : en:6
00:36:05.665 : en:7
00:40:32.123 : en:8
00:45:41.581 : en:9
00:51:49.831 : en:10
00:57:08.331 : en:11
01:02:08.914 : en:12
01:07:32.455 : en:13
01:13:25.038 : en:14
01:20:09.954 : en:15
01:25:36.287 : en:16
01:30:28.828 : en:17
01:36:18.953 : en:18
01:42:06.786 : en:19

Скриншоты

http://lostpix.com/thumbs/2017-05/30/j8lupk37e5vl6gqhadmlzvt2u.jpg http://lostpix.com/thumbs/2017-05/30/awk2rtap5v6fo3jinvdtbluex.jpg
http://lostpix.com/thumbs/2017-05/30/75jpv4qidi1wigr5bwi57rhrv.jpg http://lostpix.com/thumbs/2017-05/30/2t7lxthr3xdwemzmdmuj5plqx.jpg
http://lostpix.com/thumbs/2017-05/30/fnfm51dnwpbgxt0kxvoal2dxl.jpg http://lostpix.com/thumbs/2017-05/30/nr2y9p5luglku91wenfey41d4.jpg
Оценить

Оценка: 3.0 из 10 (голосов: 1)

Скачать торрент файл и удобный браузер в подарок Скачать 
ТипХуд. фильмы
Хэш релиза6279db483a54cf96a4616d65c13870861f6ca91d
Проверить
Этот релиз был проверен ФОН45
Доп. статус раздачи  Проверено  Назначил: Система
РаздающийПоследний раз был здесь 8 минут 49 секунд  назад
Размер2.06 GB (2,207,660,158 байт)
Добавлен30 мая 2017 в 20:53:05
Просмотров212
Взят55
Скачан4 раз
ВыложилФОН45       
 +30 
Оценить
 0 
В раздаче
[Посмотреть список]
1 раздающих, 0 качающих = 1 пиров
Скачавшие
[Посмотреть список]
Данные о торрентеПоказать данные
Сказали спасибо
 

Похожие раздачи

» » » Показать список похожих торрентов « « «

:: Список комментариев http://torrents32.net
Комментариев нет. Желаете добавить?

:: Добавить комментарий к релизу
Штампы (откроются в новом окошке)
 

Реклама Скрыть
Место рекламы
Copyright © 2011
Первый торрент трекер 3.0 | Гостевая книга
Яндекс.Метрика

Вверх