Главная Торренты Загрузить Непроверенные Закачка картинок Парсер Гостевая Правила Команда Форум
Первый торрент трекер 3.0
   Здравствуйте, гость ( Вход | Регистрация )

Главное меню

Торренты
Загрузить
Форум
Топ 10
Правила
ЧаВо
Администрация

Персональное меню

Настройки
Закладки
Мои торренты
Мои запросы
Мой бонус
Мои друзья
Мои соседи
Пригласить
Пользователи
Выход!

Сообщения

Полученные
Отправленные

Торренты

Все торренты
Загрузить торрент
Непроверенные
Закачка картинок
Парсер релизов

Торрент-клиенты






Правила

Правила
ЧаВо

Общение

форум
Страницы & Блог
Мы в контакте
Чат

Администрация

Команда сайта
Обратная связь
Гостевая книга

Категории

Худ. фильмы
HD-фильмы
Док. фильмы
Иное кино
ТВ-записи
Сериалы
Спорт
Юмор (видео)
Клипы
Видео из игр
Отеч. мультфильмы
Мультфильмы
Аниме
Прочее видео
ХХХ
Отеч. музыка
Иностр. музыка
Сборники музыка
Юмор (музыка)
OST-саундтреки
Прочее аудио
PC игры
Игры для консолей
Flash и мини-игры
Дополнение к играм
Win-софт
Nix-софт
Mac-софт
Худ. книги
Учебники
Аудио книги
Журналы
Прочие книги
Фото,картинки,обои
Mobile
Hentai
Манга
Подкасты,радиошоу
Unsorted
Temp


Стол заказов Скрыть

Ссылки Скрыть


Погода в Брянске Скрыть

Реклама Скрыть

Наша кнопка

Первый торрент трекер 3.0


Брянское радио Скрыть

Календарь Скрыть
Ноябрь 2017г.
ПВСЧПСВ
303112345
6789101112
13141516171819
20212223242526
27282930123
Московское время

Пожертвования Скрыть
Яндекс.Деньги:
41001624471351

VISA или MasterCard:

(изменить сумму
перевода можно
на этой странице)

Декабрь
Шарфик - 1000 р.
Nixon - 500 р.

Соц. закладки Скрыть

:: Детали релиза

Мульти-трекерная раздача Вымогательство / Extortion (2017) WEB-DL 720p от ExKinoRay | L

 
Изображение для Вымогательство / Extortion (2017) WEB-DL 720p от ExKinoRay | L (кликните для просмотра полного изображения)

Информация о фильме
Название: Вымогательство
Оригинальное название: Extortion
Год выхода: 2017
Жанр: Боевик, триллер, драма, криминал, приключения
Режиссер: Филипп Волкен
В ролях: Эйон Бэйли, Бетани Джой Ленц, Баркхад Абди, Дэнни Гловер, Тим Гриффин, Джек Уоллес, Элид Барриос

pic/opisanie.gif
Счастливая семья отправляется отдыхать на Карибы, но вскоре их поездка превращается в сущий кошмар. После несчастного случая главному герою придётся бежать наперегонки со временем, чтобы спасти своих жену и сына


http://s.rutor.info/imdb/pic/2957760.gif http://www.kinopoisk.ru/rating/771802.gif

Страна: США, Пуэрто Рико
Студия: Filmmuse Productions, Producer Capital Fund
Продолжительность: 01:49:11
Перевод: Любительский многоголосый | ParadoxandOmskbird Records

Файл
Качество: WEB-DL 720p
Видео: MPEG-4 AVC, 1280x532, 3988 Кbit/s, 23.976 fps
Звук:
Аудио #01: 48 kHz, AC3, 5.1, 384 Kbps | ParadoxandOmskbird Records | RUS |http://lostpix.com/img/2016-04/26/ecarul7mj2gcrjkf30af8u4tk.gif
Аудио #02: 48 kHz, AC3, 5.1, 384 Kbps | Оригинал | ENG |http://lostpix.com/img/2016-09/30/0icucyo5gq0qmwlibabcgmhiw.gif
Субтитры: Английские

http://s019.radikal.ru/i616/1705/cd/e33a636573c5t.jpg http://s019.radikal.ru/i637/1705/d2/c3a4a2b59426t.jpg http://s11.radikal.ru/i183/1705/04/4156fa1234bat.jpg http://s018.radikal.ru/i510/1705/ce/074ac0c5d19ft.jpg http://s02.radikal.ru/i175/1705/57/51e7c45bb16ct.jpg

http://lostpix.com/img/2016-07/27/y6ewlcgwiywbsm8spjbgf2xo8.gif
MI
General
Unique ID : 181240819642577485477474128137901931923 (0x8859B650BD680E05A12E8615A11D7D93)
Complete name : F:VideoExtortion.2017.MVO.WEB-DL.720p.ExKinoRay.mkv
Format : Matroska
Format version : Version 4 / Version 2
File size : 3.63 GiB
Duration : 1 h 49 min
Overall bit rate mode : Variable
Overall bit rate : 4 758 kb/s
Encoded date : UTC 2017-05-29 16:37:30
Writing application : mkvmerge v12.0.0 ('Trust / Lust') 64bit
Writing library : libebml v1.3.4 libmatroska v1.4.5

Video
ID : 1
Format : AVC
Format/Info : Advanced Video Codec
Format profile : High@L4.1
Format settings, CABAC : Yes
Format settings, ReFrames : 2 frames
Codec ID : V_MPEG4/ISO/AVC
Duration : 1 h 49 min
Bit rate mode : Variable
Bit rate : 3 988 kb/s
Maximum bit rate : 40.0 Mb/s
Width : 1 280 pixels
Height : 532 pixels
Display aspect ratio : 2.40:1
Frame rate mode : Constant
Frame rate : 23.976 (24000/1001) FPS
Color space : YUV
Chroma subsampling : 4:2:0
Bit depth : 8 bits
Scan type : Progressive
Bits/(Pixel*Frame) : 0.244
Stream size : 3.04 GiB (84%)
Language : English
Default : Yes
Forced : No
Color range : Limited
Color primaries : BT.709
Transfer characteristics : BT.709
Matrix coefficients : BT.709

Audio #1
ID : 2
Format : AC-3
Format/Info : Audio Coding 3
Format settings, Endianness : Big
Codec ID : A_AC3
Duration : 1 h 49 min
Bit rate mode : Constant
Bit rate : 384 kb/s
Channel(s) : 6 channels
Channel positions : Front: L C R, Side: L R, LFE
Sampling rate : 48.0 kHz
Frame rate : 31.250 FPS (1536 spf)
Bit depth : 16 bits
Compression mode : Lossy
Stream size : 300 MiB (8%)
Title : MVO
Language : Russian
Service kind : Complete Main
Default : Yes
Forced : No

Audio #2
ID : 3
Format : AC-3
Format/Info : Audio Coding 3
Format settings, Endianness : Big
Codec ID : A_AC3
Duration : 1 h 49 min
Bit rate mode : Constant
Bit rate : 384 kb/s
Channel(s) : 6 channels
Channel positions : Front: L C R, Side: L R, LFE
Sampling rate : 48.0 kHz
Frame rate : 31.250 FPS (1536 spf)
Bit depth : 16 bits
Compression mode : Lossy
Stream size : 300 MiB (8%)
Title : Original
Language : English
Service kind : Complete Main
Default : No
Forced : No

Text
ID : 4
Format : UTF-8
Codec ID : S_TEXT/UTF8
Codec ID/Info : UTF-8 Plain Text
Duration : 1 h 40 min
Bit rate : 46 b/s
Count of elements : 1014
Stream size : 34.2 KiB (0%)
Title : Full
Language : English
Default : No
Forced : No

Menu
00:00:00.000 : en:1
00:03:34.000 : en:2
00:14:56.000 : en:3
00:27:05.000 : en:4
00:38:21.000 : en:5
00:49:43.000 : en:6
01:00:37.000 : en:7
01:12:38.000 : en:8
01:21:59.000 : en:9
01:33:11.000 : en:10
01:44:24.000 : en:11


http://lostpix.com/img/2017-03/22/pa3kns75lpl0e564ik1il8ow9.gif
Оценить

Оценка: 5.0 из 10 (голосов: 1)

Скачать торрент файл и удобный браузер в подарок Скачать 
ТипХуд. фильмы
Хэш релизаb51197258fcf967240ee77d891c032a4055c66f8
Проверить
Этот релиз был проверен ФОН45
Доп. статус раздачи  Проверено  Назначил: Система
РаздающийПоследний раз был здесь 4 месяца 3 недели 5 дней 7 часов 16 минут 51 секунду  назад
Размер3.63 GB (3,896,048,457 байт)
Добавлен30 мая 2017 в 11:39:32
Просмотров160
Взят26
Скачан2 раз
ВыложилФОН45       
 +37 
Оценить
 0 
В раздаче
[Посмотреть список]
0 раздающих, 0 качающих = 0 пиров
Скачавшие
[Посмотреть список]
Данные о торрентеПоказать данные
Сказали спасибо
 

Похожие раздачи

» » » Показать список похожих торрентов « « «

:: Список комментариев http://torrents32.net
Комментариев нет. Желаете добавить?

:: Добавить комментарий к релизу
Штампы (откроются в новом окошке)
 

Реклама Скрыть
Место рекламы
Copyright © 2011
Первый торрент трекер 3.0 | Гостевая книга
Яндекс.Метрика

Вверх