Главная Торренты Загрузить Непроверенные Закачка картинок Парсер Гостевая Правила Команда Форум
Первый торрент трекер 3.0
   Здравствуйте, гость ( Вход | Регистрация )

Главное меню

Торренты
Загрузить
Форум
Топ 10
Правила
ЧаВо
Администрация

Персональное меню

Настройки
Закладки
Мои торренты
Мои запросы
Мой бонус
Мои друзья
Мои соседи
Пригласить
Пользователи
Выход!

Сообщения

Полученные
Отправленные

Торренты

Все торренты
Загрузить торрент
Непроверенные
Закачка картинок
Парсер релизов

Торрент-клиенты






Правила

Правила
ЧаВо

Общение

форум
Страницы & Блог
Мы в контакте
Чат

Администрация

Команда сайта
Обратная связь
Гостевая книга

Категории

Худ. фильмы
HD-фильмы
Док. фильмы
Иное кино
ТВ-записи
Сериалы
Спорт
Юмор (видео)
Клипы
Видео из игр
Отеч. мультфильмы
Мультфильмы
Аниме
Прочее видео
ХХХ
Отеч. музыка
Иностр. музыка
Сборники музыка
Юмор (музыка)
OST-саундтреки
Прочее аудио
PC игры
Игры для консолей
Flash и мини-игры
Дополнение к играм
Win-софт
Nix-софт
Mac-софт
Худ. книги
Учебники
Аудио книги
Журналы
Прочие книги
Фото,картинки,обои
Mobile
Hentai
Манга
Подкасты,радиошоу
Unsorted
Temp


Стол заказов Скрыть

Ссылки Скрыть


Погода в Брянске Скрыть

Реклама Скрыть

Наша кнопка

Первый торрент трекер 3.0


Брянское радио Скрыть

Календарь Скрыть
Сентябрь 2017г.
ПВСЧПСВ
28293031123
45678910
11121314151617
18192021222324
2526272829301
Московское время

Пожертвования Скрыть
Яндекс.Деньги:
41001624471351

VISA или MasterCard:

(изменить сумму
перевода можно
на этой странице)

Декабрь
Шарфик - 1000 р.
Nixon - 500 р.

Соц. закладки Скрыть

:: Детали релиза

Мульти-трекерная раздача Брокмайр / Brockmire [S01] (2017) WEBRip | OMSKBIRD

 
Изображение для Брокмайр / Brockmire [S01] (2017) WEBRip | OMSKBIRD (кликните для просмотра полного изображения)

Информация о фильме
Название: Брокмайр
Оригинальное название: Brockmire
Год выхода: 2017
Жанр: комедия
Режиссер: Тим Киркби
В ролях: Хэнк Азария, Хемки Мадера, Аманда Пит, Пол Рэй, Стив Култер, Алекс Фиппс, Кэти Финнеран, Дестини Лопес, Рубен Бугайонг и др.

pic/opisanie.gif
Джим Брокмайр — знаменитый комментатор игр Главной лиги бейсбола. Однако узнав об изменах жены, он послал к чертям профессионализм и слетел с катушек в прямом эфире. Ролик с буйствующим Брокмайром попал в сеть, превратив бывшую звезду во всеобщее посмешище. Но десять лет спустя главный герой решает восстановить свою карьеру и наладить личную жизнь, устроившись комментатором игр низшей бейсбольной лиги в крохотном Морристауне.

http://www.kinopoisk.ru/rating/1008790.gif
http://s.rutor.info/imdb/pic/5722190.gif

Страна: США
Продолжительность: ~ 22 мин. серия
Перевод: Любительский (многоголосый закадровый) | OMSKBIRD

Файл
Кодек: Xvid
Качество: WEBRip
Видео: AVI, 720x400 (16:9), 25.000 fps, ~ 1800 kbps
Звук: Аудио rus: AC-3, 48 KHz, 2 ch, 192 kbps | OMSKBIRD records

Семпл

Присутствует реклама!

Скриншоты
http://i1.imageban.ru/thumbs/2017.04.14/ba1d84aa6a8c1b65797ba2ef0bbb1816.png http://i6.imageban.ru/thumbs/2017.04.14/f30eaf42c02eec87e03711b357078893.png http://i3.imageban.ru/thumbs/2017.04.14/9fa812aa976369439e7983fbad4ec0fc.png http://i6.imageban.ru/thumbs/2017.04.14/19ed03a0d18cbdae307e8a4906bcde03.png
Mediainfo:
General
Complete name : F:Мои ДокументыВидеоРАЗДАЧИБрокмайерBrockmire S01 WEBRip (OMSKBIRD)Brockmire S01E01 WEBRip (OMSKBIRD).avi
Format : AVI
Format/Info : Audio Video Interleave
File size : 336 MiB
Duration : 23mn 30s
Overall bit rate : 1 997 Kbps
Writing application : VirtualDubMod 1.5.10.3 | www.virtualdub-fr.org || (build 2550/release)
Writing library : VirtualDubMod build 2550/release

Video
ID : 0
Format : MPEG-4 Visual
Format profile : Advanced Simple@L5
Format settings, BVOP : 2
Format settings, QPel : No
Format settings, GMC : No warppoints
Format settings, Matrix : Default (MPEG)
Codec ID : XVID
Codec ID/Hint : XviD
Duration : 23mn 30s
Bit rate : 1 795 Kbps
Width : 720 pixels
Height : 400 pixels
Display aspect ratio : 16:9
Frame rate : 25.000 fps
Color space : YUV
Chroma subsampling : 4:2:0
Bit depth : 8 bits
Scan type : Progressive
Compression mode : Lossy
Bits/(Pixel*Frame) : 0.249
Stream size : 302 MiB (90%)
Writing library : XviD 1.2.1 (UTC 2008-12-04)

Audio
ID : 1
Format : AC-3
Format/Info : Audio Coding 3
Mode extension : CM (complete main)
Format settings, Endianness : Big
Codec ID : 2000
Duration : 23mn 30s
Bit rate mode : Constant
Bit rate : 192 Kbps
Channel(s) : 2 channels
Channel positions : Front: L R
Sampling rate : 48.0 KHz
Bit depth : 16 bits
Compression mode : Lossy
Stream size : 32.3 MiB (10%)
Alignment : Split accross interleaves
Interleave, duration : 40 ms (1.00 video frame)
Interleave, preload duration : 500 ms








Релиз:
Перевод • Екатерина Кузнецова
Роли озвучивали • Павел Ярощик, Эльвира Адамова
Звукорежиссер • Павел Квентов
Постер • Ксения Просветова
Релиз подготовил • Gater


Торрент залит при помощи парсера раздач для windows
Оценить

Оценка: 1.0 из 10 (голосов: 1)

Скачать торрент файл и удобный браузер в подарок Скачать 
ТипСериалы
Хэш релизаc8019787672627928ab96c3f1f281b5acd51a452
Проверить
Этот релиз был проверен ФОН45
Доп. статус раздачи  Проверено  Назначил: Система
РаздающийПоследний раз был здесь 4 месяца 1 неделю 18 часов 14 минут 4 секунды  назад
Размер2.52 GB (2,709,405,696 байт)
Добавлен19 мая 2017 в 20:15:45
Просмотров93
Взят18
Скачан0 раз
ВыложилФОН45       
 +31 
Оценить
 0 
Файлов
[Посмотреть список]
8 файлов
В раздаче
[Посмотреть список]
0 раздающих, 0 качающих = 0 пиров
Данные о торрентеПоказать данные
Сказали спасибо
 

Похожие раздачи

» » » Показать список похожих торрентов « « «

:: Список комментариев http://torrents32.net
Комментариев нет. Желаете добавить?

:: Добавить комментарий к релизу
Штампы (откроются в новом окошке)
 

Реклама Скрыть
Место рекламы
Copyright © 2011
Первый торрент трекер 3.0 | Гостевая книга
Яндекс.Метрика

Вверх