Главная Торренты Загрузить Непроверенные Закачка картинок Парсер Гостевая Правила Команда Форум
Первый торрент трекер 3.0
   Здравствуйте, гость ( Вход | Регистрация )

Главное меню

Торренты
Загрузить
Форум
Топ 10
Правила
ЧаВо
Администрация

Персональное меню

Настройки
Закладки
Мои торренты
Мои запросы
Мой бонус
Мои друзья
Мои соседи
Пригласить
Пользователи
Выход!

Сообщения

Полученные
Отправленные

Торренты

Все торренты
Загрузить торрент
Непроверенные
Закачка картинок
Парсер релизов

Торрент-клиенты






Правила

Правила
ЧаВо

Общение

форум
Страницы & Блог
Мы в контакте
Чат

Администрация

Команда сайта
Обратная связь
Гостевая книга

Категории

Худ. фильмы
HD-фильмы
Док. фильмы
Иное кино
ТВ-записи
Сериалы
Спорт
Юмор (видео)
Клипы
Видео из игр
Отеч. мультфильмы
Мультфильмы
Аниме
Прочее видео
ХХХ
Отеч. музыка
Иностр. музыка
Сборники музыка
Юмор (музыка)
OST-саундтреки
Прочее аудио
PC игры
Игры для консолей
Flash и мини-игры
Дополнение к играм
Win-софт
Nix-софт
Mac-софт
Худ. книги
Учебники
Аудио книги
Журналы
Прочие книги
Фото,картинки,обои
Mobile
Hentai
Манга
Подкасты,радиошоу
Unsorted
Temp


Стол заказов Скрыть

Ссылки Скрыть


Погода в Брянске Скрыть

Реклама Скрыть

Наша кнопка

Первый торрент трекер 3.0


Брянское радио Скрыть

Календарь Скрыть
Октябрь 2017г.
ПВСЧПСВ
2526272829301
2345678
9101112131415
16171819202122
23242526272829
303112345
Московское время

Пожертвования Скрыть
Яндекс.Деньги:
41001624471351

VISA или MasterCard:

(изменить сумму
перевода можно
на этой странице)

Декабрь
Шарфик - 1000 р.
Nixon - 500 р.

Соц. закладки Скрыть

:: Детали релиза

Мульти-трекерная раздача Трое в лифте, не считая собаки [01-02 из 02] (2017) WEB-DLRip (1080p) от MediaClub

 
Изображение для Трое в лифте, не считая собаки [01-02 из 02] (2017) WEB-DLRip (1080p) от MediaClub (кликните для просмотра полного изображения)

Информация о фильме
Название: Трое в лифте, не считая собаки
Год выхода: 2017
Жанр: Детектив, мелодрама, экранизация
Режиссер: Алексей Праздников
В ролях: Алла Юганова, Юлия Такшина, Екатерина Копанова, Александр Макогон, Нодар Джанелидзе, Александр Иванов

pic/opisanie.gif
И снова Ирина (Алла Юганова), Жанна (Юлия Такшина) и Катя (Екатерина Копанова) доказали верность женской дружбе. На этот раз проблемы возникли у преуспевающего нотариуса Жанны. Документы на право наследования, которые клиент доверил ей для сохранности, исчезли из банковской ячейки девушки. Сотрудники банка уверяют клиентку, что всего час назад она уже была в отделении и сама забрала все бумаги. Разобраться, кто действует "под маской" Жанны и куда подевались документы, подруге помогают Ира и Катя, а также их вторые половинки – детектив Ивушкин (Александр Макогон) и Кряквин (Нодар Джанелидзе). Не бросает Жанну и её ухажёр Борис (Илья Демидов). Очень быстро подруги находят лже-Жанну, правда, мёртвой…


http://www.kinopoisk.ru/rating/1008301.gif
Страна: Россия
Студия: Кинокомпания "Green-Film" по заказу студии «Телемастер»
Продолжительность: 2 х ~ 00:46:00
Перевод: Не требуется

Файл
Кодек: h.264
Качество: WEB-DLRip (1080p)
Видео: MPEG-4 AVC, ~ 5120 Кбит/с, 1920x1080
Звук: Русский (AC3, 2 ch, 256 Кбит/с)
Субтитры: Нет

Семпл

MI
General
Unique ID : 221881982474807092118879219786965981843 (0xA6ECEA58C1C714F7B572F84FAA321A93)
Complete name : D:uTorrentTroe.v.lifte.2017.WEB-DLRip.1080p.MediaClubTroe.v.lifte.(01.iz.02).2017.WEB-DLRip.1080p.MediaClub.mkv
Format : Matroska
Format version : Version 4 / Version 2
File size : 1.74 GiB
Duration : 46 min 26 s
Overall bit rate : 5 375 kb/s
Encoded date : UTC 2017-05-19 15:32:47
Writing application : mkvmerge v10.0.0 ('To Drown In You') 64bit
Writing library : libebml v1.3.4 libmatroska v1.4.5

Video
ID : 1
Format : AVC
Format/Info : Advanced Video Codec
Format profile : High@L4
Format settings, CABAC : Yes
Format settings, ReFrames : 4 frames
Codec ID : V_MPEG4/ISO/AVC
Duration : 46 min 26 s
Bit rate : 5 120 kb/s
Width : 1 920 pixels
Height : 1 080 pixels
Display aspect ratio : 16:9
Frame rate mode : Constant
Frame rate : 25.000 FPS
Color space : YUV
Chroma subsampling : 4:2:0
Bit depth : 8 bits
Scan type : Progressive
Bits/(Pixel*Frame) : 0.099
Stream size : 1.66 GiB (95%)
Title : WEB-DLRip by Silverok
Writing library : x264 core 142
Encoding settings : cabac=1 / ref=3 / deblock=1:0:0 / analyse=0x3:0x113 / me=hex / subme=7 / psy=1 / psy_rd=1.00:0.00 / mixed_ref=1 / me_range=16 / chroma_me=1 / trellis=1 / 8x8dct=1 / cqm=0 / deadzone=21,11 / fast_pskip=1 / chroma_qp_offset=-2 / threads=36 / lookahead_threads=6 / sliced_threads=0 / nr=0 / decimate=1 / interlaced=0 / bluray_compat=0 / constrained_intra=0 / bframes=6 / b_pyramid=2 / b_adapt=1 / b_bias=0 / direct=1 / weightb=1 / open_gop=0 / weightp=2 / keyint=50 / keyint_min=26 / scenecut=0 / intra_refresh=0 / rc_lookahead=40 / rc=2pass / mbtree=1 / bitrate=5120 / ratetol=1.0 / qcomp=0.60 / qpmin=0 / qpmax=69 / qpstep=4 / cplxblur=20.0 / qblur=0.5 / vbv_maxrate=7680 / vbv_bufsize=20480 / nal_hrd=none / filler=0 / ip_ratio=1.40 / aq=1:1.00
Default : Yes
Forced : No

Audio
ID : 2
Format : AC-3
Format/Info : Audio Coding 3
Format settings, Endianness : Big
Codec ID : A_AC3
Duration : 46 min 26 s
Bit rate mode : Constant
Bit rate : 256 kb/s
Channel(s) : 2 channels
Channel positions : Front: L R
Sampling rate : 48.0 kHz
Frame rate : 31.250 FPS (1536 spf)
Bit depth : 16 bits
Compression mode : Lossy
Stream size : 85.0 MiB (5%)
Language : Russian
Service kind : Complete Main
Default : Yes
Forced : No

Скриншоты
http://s019.radikal.ru/i612/1705/1a/a79178321435t.jpghttp://s018.radikal.ru/i520/1705/5a/3da457bde19et.jpg http://s019.radikal.ru/i632/1705/c0/c8b760f52e7bt.jpghttp://i013.radikal.ru/1705/9e/25b5569a8a1at.jpg http://s019.radikal.ru/i639/1705/9b/00d4a570120ft.jpghttp://s009.radikal.ru/i309/1705/68/512b88d1d68ft.jpg http://s009.radikal.ru/i310/1705/83/aa085fc2cba7t.jpghttp://s03.radikal.ru/i176/1705/d5/fba592a75fect.jpg

Оценить

Оценка: 3.0 из 10 (голосов: 2)

Скачать торрент файл и удобный браузер в подарок Скачать 
ТипСериалы
Хэш релиза281da55dccdfea282fc209797b1aab0518d53637
Проверить
Этот релиз был проверен ФОН45
Доп. статус раздачи  Проверено  Назначил: Система
РаздающийПоследний раз был здесь 4 месяца 2 недели 3 дня 14 часов 3 минуты 8 секунд  назад
Размер3.46 GB (3,719,226,770 байт)
Добавлен19 мая 2017 в 20:13:17
Просмотров114
Взят19
Скачан2 раз
ВыложилФОН45       
 +33 
Оценить
 0 
Файлов
[Посмотреть список]
2 файлов
В раздаче
[Посмотреть список]
0 раздающих, 0 качающих = 0 пиров
Скачавшие
[Посмотреть список]
Открыть
Данные о торрентеПоказать данные
Сказали спасибо
 

Похожие раздачи

» » » Показать список похожих торрентов « « «

:: Список комментариев http://torrents32.net
Комментариев нет. Желаете добавить?

:: Добавить комментарий к релизу
Штампы (откроются в новом окошке)
 

Реклама Скрыть
Место рекламы
Copyright © 2011
Первый торрент трекер 3.0 | Гостевая книга
Яндекс.Метрика

Вверх