Главная Торренты Загрузить Непроверенные Закачка картинок Парсер Гостевая Правила Команда Форум
Первый торрент трекер 3.0
   Здравствуйте, гость ( Вход | Регистрация )

Главное меню

Торренты
Загрузить
Форум
Топ 10
Правила
ЧаВо
Администрация

Персональное меню

Настройки
Закладки
Мои торренты
Мои запросы
Мой бонус
Мои друзья
Мои соседи
Пригласить
Пользователи
Выход!

Сообщения

Полученные
Отправленные

Торренты

Все торренты
Загрузить торрент
Непроверенные
Закачка картинок
Парсер релизов

Торрент-клиенты






Правила

Правила
ЧаВо

Общение

форум
Страницы & Блог
Мы в контакте
Чат

Администрация

Команда сайта
Обратная связь
Гостевая книга

Категории

Худ. фильмы
HD-фильмы
Док. фильмы
Иное кино
ТВ-записи
Сериалы
Спорт
Юмор (видео)
Клипы
Видео из игр
Отеч. мультфильмы
Мультфильмы
Аниме
Прочее видео
ХХХ
Отеч. музыка
Иностр. музыка
Сборники музыка
Юмор (музыка)
OST-саундтреки
Прочее аудио
PC игры
Игры для консолей
Flash и мини-игры
Дополнение к играм
Win-софт
Nix-софт
Mac-софт
Худ. книги
Учебники
Аудио книги
Журналы
Прочие книги
Фото,картинки,обои
Mobile
Hentai
Манга
Подкасты,радиошоу
Unsorted
Temp


Стол заказов Скрыть

Ссылки Скрыть


Погода в Брянске Скрыть

Реклама Скрыть

Наша кнопка

Первый торрент трекер 3.0


Брянское радио Скрыть

Календарь Скрыть
Сентябрь 2017г.
ПВСЧПСВ
28293031123
45678910
11121314151617
18192021222324
2526272829301
Московское время

Пожертвования Скрыть
Яндекс.Деньги:
41001624471351

VISA или MasterCard:

(изменить сумму
перевода можно
на этой странице)

Декабрь
Шарфик - 1000 р.
Nixon - 500 р.

Соц. закладки Скрыть

:: Детали релиза

Мульти-трекерная раздача Приятный на вид / Eye Candy [S01] (2015) WEB-DLRip | P

 
Изображение для Приятный на вид / Eye Candy [S01] (2015) WEB-DLRip | P (кликните для просмотра полного изображения)

Приятный на вид / Приманка / Eye Candy

Страна: США http://st.kp.yandex.net/images/flags/flag-1.gif
Производство: Blumhouse Productions, Jax Media
Год выпуска: 2015
Сезоны: 1
Жанр: триллер, драма, криминал, детектив
Продолжительность: 10х ~00:41:00

Режиссеры: Нэйтан Хоуп, Марта Митчелл, Рассел Малкэй
Авторы сценария: Р.Л. Стайн, Кристиан Тейлор, Эмми Гринвис

В ролях: Виктория Джастис, Кэйси Дейдрик, Харви Гильен, Маркус Каллендер, Скотт Уайт, Кирси Клемонс, Джон Гарет Стоукер, Райан Купер

pic/opisanie.gif Сериал, рассказывающий о жительнице Нью-Йорка, которая подозревает, что один из её онлайн-ухажёров является серийным убийцей. Она применяет все свои хакерские данные, чтобы вычислить преступников. В этом ей поможет команда единомышленников...

http://s.rutor.info/imdb/pic/3186162.gif http://www.kinopoisk.ru/rating/818762.gif

Перевод: Профессиональный (многоголосый, закадровый) | SET
Субтитры: нет


Качество: WEB-DLRip
Формат: AVI
Видео кодек: XviD
Аудио кодек: АС3
Видео: 720x400 (16:9), 23.976 fps, XviD build 65 ~1 500 kbps avg
Аудио №1: 48.0 kHz, AC3 Dolby Digital, 2/0 (L,R) ch, ~192 kbps | RUS
Аудио №2: 48.0 kHz, AC3 Dolby Digital, 2/0 (L,R) ch, ~192 kbps | ENG

Дата премьеры (мир): 12 января 2015

http://s020.radikal.ru/i720/1609/54/5ae4dee54ff4.gif http://s018.radikal.ru/i522/1609/79/3d079e982089.gif

Дополнительная информация
версия показанная на SET немного отличается от HDTV, поэтому есть несколько небольших вставок с озвучкой Alternative Production

Media Info
General
Формат : AVI
Формат/Информация : Audio Video Interleave
Размер файла : 552 Мбайт
Продолжительность : 41 м.
Общий поток : 1865 Кбит/сек
Название фильма : Приманка (Приятный на вид / Милашка). Сезон 1 / Eye Candy. Season 1 (2015)
Программа кодирования : VirtualDubMod 1.5.10.2 (build 2540/release)
Библиотека кодирования : VirtualDubMod build 2540/release
Авторское право : miha2154

Видео
Идентификатор : 0
Формат : MPEG-4 Visual
Профиль формата : Advanced Simple@L5
Параметр BVOP формата : 1
Параметр QPel формата : Нет
Параметр GMC формата : Без точки перехода
Параметр матрицы формата : Выборочная
Идентификатор кодека : DX50
Идентификатор кодека/Подсказка : DivX 5
Продолжительность : 41 м.
Битрейт : 1467 Кбит/сек
Ширина : 720 пикселей
Высота : 400 пикселей
Соотношение сторон : 16:9
Частота кадров : 23,976 (24000/1001) кадра/сек
Цветовое пространство : YUV
Субдискретизация насыщенности : 4:2:0
Битовая глубина : 8 бит
Тип развёртки : Прогрессивная
Метод сжатия : С потерями
Бит/(Пиксели*Кадры) : 0.212
Размер потока : 434 Мбайт (79%)
Библиотека кодирования : XviD 65

Аудио #1
Идентификатор : 1
Формат : AC-3
Формат/Информация : Audio Coding 3
Расширение режима : CM (complete main)
Параметр Endianness формата : Big
Идентификатор кодека : 2000
Продолжительность : 41 м.
Вид битрейта : Постоянный
Битрейт : 192 Кбит/сек
Каналы : 2 канала
Расположение каналов : Front: L R
Частота : 48,0 КГц
Частота кадров : 31,250 кадров/сек (1536 spf)
Метод сжатия : С потерями
Размер потока : 56,8 Мбайт (10%)
Выравнивание : Разделение по промежуткам
Продолжительность промежутка : 42 мс. (1,00 видеокадр)
Время предзагрузки промежутка : 500 мс.
Заголовок : Профессиональный (многоголосый закадровый) SET

Аудио #2
Идентификатор : 2
Формат : AC-3
Формат/Информация : Audio Coding 3
Расширение режима : CM (complete main)
Параметр Endianness формата : Big
Идентификатор кодека : 2000
Продолжительность : 41 м.
Вид битрейта : Постоянный
Битрейт : 192 Кбит/сек
Каналы : 2 канала
Расположение каналов : Front: L R
Частота : 48,0 КГц
Скриншоты
http://img11.lostpic.net/2017/05/17/7bb355ce1ba8c9da53a9f16cd7fcb952.th.png http://img11.lostpic.net/2017/05/17/28c57ecc4283d056861ce718d61d29fb.th.png http://img11.lostpic.net/2017/05/17/040cd9768084a032f812ec30985f7b61.th.png


Торрент залит при помощи парсера раздач для windows
Оценить

Оценка: 1.0 из 10 (голосов: 1)

Скачать торрент файл и удобный браузер в подарок Скачать 
ТипСериалы
Хэш релизаedf795fe57453da9ea4a264f7ec6b6faa49fe290
Проверить
Этот релиз был проверен ФОН45
Доп. статус раздачи  Проверено  Назначил: Система
РаздающийПоследний раз был здесь 4 месяца 1 неделю 1 день 15 часов 24 минуты 31 секунду  назад
Размер5.39 GB (5,792,151,552 байт)
Добавлен17 мая 2017 в 15:58:46
Просмотров87
Взят19
Скачан0 раз
ВыложилФОН45       
 +31 
Оценить
 +4 
Файлов
[Посмотреть список]
10 файлов
В раздаче
[Посмотреть список]
0 раздающих, 0 качающих = 0 пиров
Данные о торрентеПоказать данные
Сказали спасибо
 

Похожие раздачи

» » » Показать список похожих торрентов « « «

:: Список комментариев http://torrents32.net
Комментариев нет. Желаете добавить?

:: Добавить комментарий к релизу
Штампы (откроются в новом окошке)
 

Реклама Скрыть
Место рекламы
Copyright © 2011
Первый торрент трекер 3.0 | Гостевая книга
Яндекс.Метрика

Вверх